вход на сайт

Имя пользователя :
Пароль :

Восстановление пароля Регистрация
(2013) Lone / Спутник (Rap, Hip-Hop) [FLAC (Tracks+.Cue), Lossless]
Рейтинг:
(голосов: 1)



[img]{THEME}/images/logopost.png[/img]



Исполнитель: Lone
Альбом: Спутник
Тип альбома: Студийный
Год выпуска: 2013
Жанр: Rap, Hip-Hop
Страна: Россия
Аудиокодек: FLAC (*.flac)
Тип рипа: Tracks+.Cue
Битрейт: lossless
Продолжительность: 00:48:57

Tреклист:

1. Твой день настал ft. Павел Мурашов [03:10]
2. Буду молодым [04:05]
3. Доброе утро [03:31]
4. Будущее где-то рядом ft. Тимати [04:16]
5. Любовь и ненависть ft. Tina Smith [03:39]
6. Амбиции [02:49]
7. Салют небесам ft. Chest [03:57]
8. Все танцуют локтями [03:38]
9. Понедельник [02:54]
10. Время ft. Ms Sounday [03:00]
11. Облака [02:57]
12. Бонни и Клайд ft. Kristina Si [03:34]
13. В городе погас свет [03:59]
14. День рождения (Лалала) [03:23]

Лог создания рипа ▼TextExact Audio Copy V1.0 beta 3 from 29. August 2011
Отчёт EAC об извлечении, выполненном 24. апреля 2013, 6:42
LOne / Спутник
Дисковод: Optiarc DVD RW AD-7280S Adapter: 0 ID: 0
Режим чтения : Достоверность
Использование точного потока : Да
Отключение кэша аудио : Да
Использование указателей C2 : Нет
Коррекция смещения при чтении : 48
Способность читать области Lead-in и Lead-out : Нет
Заполнение пропущенных сэмплов тишиной : Да
Удаление блоков с тишиной в начале и конце : Нет
При вычислениях CRC использовались нулевые сэмплы : Да
Интерфейс : Встроенный Win32-интерфейс для Win NT/2000
Обработка зазоров : Добавлено к предыдущему треку
Выходной формат : Пользовательский кодировщик
Выбранный битрейт : 128 kBit/s
Качество : Высокий
Добавление ID3-тега : Нет
Утилита сжатия : C:Program Files (x86)FLACflac.exe
Дополнительные параметры : -V -8 -T "Genre=%genre%" -T "Artist=%artist%" -T "Title=%title%" -T "Album=%albumtitle%" -T "Date=%year%" -T "Tracknumber=%tracknr%" -T "Comment=%comment%" %source%
TOC извлечённого CD
Трек | Старт | Длительность | Начальный сектор | Конечный сектор
---------------------------------------------------------------------
1 | 0:00.00 | 3:10.26 | 0 | 14275
2 | 3:10.26 | 4:05.05 | 14276 | 32655
3 | 7:15.31 | 3:31.22 | 32656 | 48502
4 | 10:46.53 | 4:16.05 | 48503 | 67707
5 | 15:02.58 | 3:39.48 | 67708 | 84180
6 | 18:42.31 | 2:49.27 | 84181 | 96882
7 | 21:31.58 | 3:57.09 | 96883 | 114666
8 | 25:28.67 | 3:38.33 | 114667  
d6a66f406170c069085a7f6999772167b3c76630(2013) Lone / Спутник (Rap, Hip-Hop) [FLAC (Tracks+.Cue), Lossless] (2013) Lone / Спутник (Rap, Hip-Hop) [FLAC (Tracks+.Cue), Lossless] " />

Аплоадер: Админ, дата: 24-04-2013, 10:43, торрент скачан: 359 раз

Понравилась раздача? Посмотрите эти:
  • (2012) Sting / Fifteen Healing Bites (Pop Rock)(Chinese Dragon) [FLAC (trac ...
  • (2013) Linkin Park / Underground XIII (Alternative Rock) [FLAC (tracks+.cue ...
  • (2013) Ahimas / Алатан (Rap, Hip-Hop) [FLAC (Tracks+.Cue), Lossless]
  • (2013) Смоки Мо / Младший (Rap, Hip-Hop) [FLAC (Tracks+.Cue), Lossless]
  • (2013) Маклай и Ганза / Статус-Кво (Rap, Hip-Hop) [FLAC (Tracks+.Cue), Loss ...
  • (2013) Стриж / Игристое (Rap, Hip-Hop) [FLAC (Tracks+.Cue), Lossless]
  • (2013) Баста / Баста 4 (Rap, Hip-Hop) [FLAC (Tracks+.Cue), Lossless]
  • (2013) Loc-Dog & Tony VA / Все знают всё (Rap, Hip-Hop) [FLAC (Tracks+.Cue ...
  • (1989) Fausto Papetti / Magic Sax [Vol. 2] (Instrumental) [FLAC (tracks+.cu ...
  • (2012) Рем Дигга / Черника (Rap) [FLAC (tracks+.cue), lossless]
  • (2012) Три Кита (Зануда, Gipsy King, Тато) / Три Кита (Rap) [FLAC (tracks+. ...
  • (2012) The Rasmus / The Rasmus (Alternative Rock/Melodic Rock) [FLAC (track ...
  • (2012) Guf / Сам И ... (Rap) [FLAC (tracks+.cue), lossless]
  • (2012) Адвайта / Не спать (Rap) [FLAC (tracks+.cue), lossless]
  • (2012) Триада / Мои глаза открыты (Rap) [FLAC (tracks+.cue), lossless]
  • (2012) KREC / Молча проще (Rap) [FLAC (tracks+.cue), lossless]
  • (2012) Птаха / Старые тайны (Rap) [FLAC (tracks+.cue), lossless]
  • (2012) Rammstein / Mein Herz brennt (Industrial, Tanz-Metal) [FLAC (tracks ...
  • (2011) Ассаи / ОМ (Rap) [FLAC (tracks+.cue), lossless]
  • (2012) Словетский / Мозайка (Rap) [FLAC (tracks+.cue), lossless]
  • Информация
    Посетители, находящиеся в группе Гости, не могут оставлять комментарии к данной публикации.