вход на сайт

Имя пользователя :
Пароль :

Восстановление пароля Регистрация
(2013) Ассаи / Задеть за мёртвое (Rap, Hip-Hop) [FLAC (Tracks+.Cue), Lossless]
Рейтинг:
(голосов: 1)



[img]{THEME}/images/logopost.png[/img]



Исполнитель: Ассаи
Альбом: Задеть за мёртвое
Тип альбома: ЕР
Год выпуска: 2013
Жанр: Rap, Hip-Hop
Страна: Россия
Аудиокодек: FLAC (*.flac)
Тип рипа: Tracks+.Cue
Битрейт: lossless
Продолжительность: 00:40:38
При участии: Иван Дорн.

Об издании: Новый альбом Ассаи «Задеть за мертвое» - результат студийного затворничества сроком в целый год. Словно вернувшись из непростого, но важного душевного странствия, артист чеканит неспешные, вдумчивые монологи - рассказывая, рассуждая, предупреждая, угадывая общие точки в разговоре с невидимым слушателем и неизменно заставляя его сопереживать.
Музыка подобающе камерна; ласковые клавишные, деликатная ритм-секция, арфа, скрипки и прозрачные, хрупкие электронные слои. Приглашенные голоса (такие разные по темпераменту - Иван Дорн, Манижа, трогательный детский хор) не нарушают сотканной музыкой атмосферы.
“Задеть за мертвое” - такое ощущение испытывает порой каждый из нас в попытке нащупать струны людских сердец. Но для настоящего поэта это не творческая неудача, а сигнал, который он обязан донести, добраться до отзывчивой души сквозь холодный, мертвый космос отчуждения.

Tреклист:

01. Цветок (при участии Манижа) [04:01]
02. Аллилуйя [04:52]
03. ЗЗМ [04:04]
04. Учитель [03:33]
05. Наркотик [04:19]
06. Река (при участии Иван Дорн) [04:19]
07. ЭВН [04:31]
08. Спутник [02:55]
09. Последний раз [05:21]
10. Жар-Птица [04:15]

Лог создания рипа ▼TextExact Audio Copy V1.0 beta 3 from 29. August 2011
Отчёт EAC об извлечении, выполненном 2. июня 2013, 14:02
Ассаи / Задеть за мёртвое
Дисковод: Optiarc DVD RW AD-7280S Adapter: 0 ID: 0
Режим чтения : Достоверность
Использование точного потока : Да
Отключение кэша аудио : Да
Использование указателей C2 : Нет
Коррекция смещения при чтении : 48
Способность читать области Lead-in и Lead-out : Нет
Заполнение пропущенных сэмплов тишиной : Да
Удаление блоков с тишиной в начале и конце : Нет
При вычислениях CRC использовались нулевые сэмплы : Да
Интерфейс : Встроенный Win32-интерфейс для Win NT/2000
Обработка зазоров : Добавлено к предыдущему треку
Выходной формат : Пользовательский кодировщик
Выбранный битрейт : 128 kBit/s
Качество : Высокий
Добавление ID3-тега : Нет
Утилита сжатия : C:Program Files (x86)FLACflac.exe
Дополнительные параметры : -V -8 -T "Genre=%genre%" -T "Artist=%artist%" -T "Title=%title%" -T "Album=%albumtitle%" -T "Date=%year%" -T "Tracknumber=%tracknr%" -T "Comment=%comment%" %source%
TOC извлечённого CD
Трек | Старт | Длительность | Начальный сектор | Конечный сектор
---------------------------------------------------------------------
1 | 0:00.00 | 4:01.66 | 0 | 18140
2 | 4:01.66 | 4:52.15 | 18141 | 40055
3 | 8:54.06 | 4:04.23 | 40056 | 58378
&nbs
4f7402fd97e65542429cd55225a11d6d60e8cffc(2013) Ассаи / Задеть за мёртвое (Rap, Hip-Hop) [FLAC (Tracks+.Cue), Lossless] (2013) Ассаи / Задеть за мёртвое (Rap, Hip-Hop) [FLAC (Tracks+.Cue), Lossless] " />

Аплоадер: Админ, дата: 2-06-2013, 19:44, торрент скачан: 359 раз

Понравилась раздача? Посмотрите эти:
  • (2012) Sting / Fifteen Healing Bites (Pop Rock)(Chinese Dragon) [FLAC (trac ...
  • (2013) Linkin Park / Underground XIII (Alternative Rock) [FLAC (tracks+.cue ...
  • (2013) Ahimas / Алатан (Rap, Hip-Hop) [FLAC (Tracks+.Cue), Lossless]
  • (2013) Смоки Мо / Младший (Rap, Hip-Hop) [FLAC (Tracks+.Cue), Lossless]
  • (2013) Маклай и Ганза / Статус-Кво (Rap, Hip-Hop) [FLAC (Tracks+.Cue), Loss ...
  • (2013) Lone / Спутник (Rap, Hip-Hop) [FLAC (Tracks+.Cue), Lossless]
  • (2013) Стриж / Игристое (Rap, Hip-Hop) [FLAC (Tracks+.Cue), Lossless]
  • (2013) Баста / Баста 4 (Rap, Hip-Hop) [FLAC (Tracks+.Cue), Lossless]
  • (2013) Loc-Dog & Tony VA / Все знают всё (Rap, Hip-Hop) [FLAC (Tracks+.Cue ...
  • (1989) Fausto Papetti / Magic Sax [Vol. 2] (Instrumental) [FLAC (tracks+.cu ...
  • (2012) Рем Дигга / Черника (Rap) [FLAC (tracks+.cue), lossless]
  • (2012) Три Кита (Зануда, Gipsy King, Тато) / Три Кита (Rap) [FLAC (tracks+. ...
  • (2012) Guf / Сам И ... (Rap) [FLAC (tracks+.cue), lossless]
  • (2012) Триада / Мои глаза открыты (Rap) [FLAC (tracks+.cue), lossless]
  • (2012) KREC / Молча проще (Rap) [FLAC (tracks+.cue), lossless]
  • (2012) Brick Bazuka / Слои (Rap) [FLAC (tracks+.cue), lossless]
  • (2012) Птаха / Старые тайны (Rap) [FLAC (tracks+.cue), lossless]
  • (2012) Rammstein / Mein Herz brennt (Industrial, Tanz-Metal) [FLAC (tracks ...
  • (2011) Ассаи / ОМ (Rap) [FLAC (tracks+.cue), lossless]
  • (2012) Словетский / Мозайка (Rap) [FLAC (tracks+.cue), lossless]
  • Информация
    Посетители, находящиеся в группе Гости, не могут оставлять комментарии к данной публикации.