вход на сайт

Имя пользователя :
Пароль :

Восстановление пароля Регистрация
(2013) Маклай и Ганза / Статус-Кво (Rap, Hip-Hop) [FLAC (Tracks+.Cue), Lossless]
Рейтинг:
(голосов: 1)



[img]{THEME}/images/logopost.png[/img]



Исполнитель: Маклай и Ганза
Альбом: Статус-Кво
Тип альбома: ЕР
Год выпуска: 2013
Жанр: Rap, Hip-Hop
Страна: Россия
Аудиокодек: FLAC (*.flac)
Тип рипа: Tracks+.Cue
Битрейт: lossless
Продолжительность: 00:36:39
При участии: Bahh Tee, Санчес, Руставели, Джонни С4 и DJ N-Tone.

Tреклист:

01. На правильной волне (скретчи от DJ N-Tone) [03:34]
02. Просто друг [03:02]
03. Под кожу (при уч. Bahh Tee) [03:39]
04. Июль [03:39]
05. Про ложь (при уч. Руставели) [03:44]
06. Доброе утро [03:28]
07. Это всё (при уч. Джонни С4) [04:46]
08. Она не ты [03:37]
09. Розовые Очки [03:48]
10. Флэшбэки (при уч. Санчес) [03:18]

Музыка:
Маклай: 1,2,3,6,7,8 Hann beats: 2,4 Zipp: 7 Прометей: 5
Сведение: Маклай

Лог создания рипа ▼TextExact Audio Copy V1.0 beta 3 from 29. August 2011
Отчёт EAC об извлечении, выполненном 31. мая 2013, 6:05
Маклай и Ганза / Статус-Кво
Дисковод: Optiarc DVD RW AD-7280S Adapter: 0 ID: 0
Режим чтения : Достоверность
Использование точного потока : Да
Отключение кэша аудио : Да
Использование указателей C2 : Нет
Коррекция смещения при чтении : 48
Способность читать области Lead-in и Lead-out : Нет
Заполнение пропущенных сэмплов тишиной : Да
Удаление блоков с тишиной в начале и конце : Нет
При вычислениях CRC использовались нулевые сэмплы : Да
Интерфейс : Встроенный Win32-интерфейс для Win NT/2000
Обработка зазоров : Добавлено к предыдущему треку
Выходной формат : Пользовательский кодировщик
Выбранный битрейт : 128 kBit/s
Качество : Высокий
Добавление ID3-тега : Нет
Утилита сжатия : C:Program Files (x86)FLACflac.exe
Дополнительные параметры : -V -8 -T "Genre=%genre%" -T "Artist=%artist%" -T "Title=%title%" -T "Album=%albumtitle%" -T "Date=%year%" -T "Tracknumber=%tracknr%" -T "Comment=%comment%" %source%
TOC извлечённого CD
Трек | Старт | Длительность | Начальный сектор | Конечный сектор
---------------------------------------------------------------------
1 | 0:00.00 | 3:34.27 | 0 | 16076
2 | 3:34.27 | 3:02.63 | 16077 | 29789
3 | 6:37.15 | 3:39.07 | 29790 | 46221
4 | 10:16.22 | 3:39.07 | 46222 | 62653
5 | 13:55.29 | 3:44.07 | 62654 | 79460
6 | 17:39.36 | 3:28.65 | 79461 | 95125
7 | 21:08.26 | 4:46.45 | 95126 | 116620
8 | 25:54.71 | 3:37.37&
867e8a7c5915b987517a03568c3f27628db6df4a(2013) Маклай и Ганза / Статус-Кво (Rap, Hip-Hop) [FLAC (Tracks+.Cue), Lossless] (2013) Маклай и Ганза / Статус-Кво (Rap, Hip-Hop) [FLAC (Tracks+.Cue), Lossless] " />

Аплоадер: Админ, дата: 31-05-2013, 15:49, торрент скачан: 359 раз

Понравилась раздача? Посмотрите эти:
  • (2012) Sting / Fifteen Healing Bites (Pop Rock)(Chinese Dragon) [FLAC (trac ...
  • (2013) Linkin Park / Underground XIII (Alternative Rock) [FLAC (tracks+.cue ...
  • (2013) Ahimas / Алатан (Rap, Hip-Hop) [FLAC (Tracks+.Cue), Lossless]
  • (2013) Смоки Мо / Младший (Rap, Hip-Hop) [FLAC (Tracks+.Cue), Lossless]
  • (2013) Маклай и Ганза / Статус-Кво (при уч. Bahh Tee, Санчес, Руставели, Дж ...
  • (2013) Маклай и Ганза / Статус-Кво (при уч. Bahh Tee, Руставели, Джонни С4 ...
  • (2013) Lone / Спутник (Rap, Hip-Hop) [FLAC (Tracks+.Cue), Lossless]
  • (2013) Стриж / Игристое (Rap, Hip-Hop) [FLAC (Tracks+.Cue), Lossless]
  • (2013) Баста / Баста 4 (Rap, Hip-Hop) [FLAC (Tracks+.Cue), Lossless]
  • (2013) Loc-Dog & Tony VA / Все знают всё (Rap, Hip-Hop) [FLAC (Tracks+.Cue ...
  • (1989) Fausto Papetti / Magic Sax [Vol. 2] (Instrumental) [FLAC (tracks+.cu ...
  • (2012) Рем Дигга / Черника (Rap) [FLAC (tracks+.cue), lossless]
  • (2012) Три Кита (Зануда, Gipsy King, Тато) / Три Кита (Rap) [FLAC (tracks+. ...
  • (2012) The Rasmus / The Rasmus (Alternative Rock/Melodic Rock) [FLAC (track ...
  • (1993) Mireille Mathieu / Chante Piaf (Pop) [FLAC (tracks+.cue), lossless]
  • (2011, Сборник) VA / The Worlds Greatest Ballads (3CD) (Pop) [FLAC (tracks+ ...
  • (2012) Guf / Сам И ... (Rap) [FLAC (tracks+.cue), lossless]
  • (2012) Адвайта / Не спать (Rap) [FLAC (tracks+.cue), lossless]
  • (2012) Триада / Мои глаза открыты (Rap) [FLAC (tracks+.cue), lossless]
  • (2012) KREC / Молча проще (Rap) [FLAC (tracks+.cue), lossless]
  • (2012) Brick Bazuka / Слои (Rap) [FLAC (tracks+.cue), lossless]
  • (2012) Птаха / Старые тайны (Rap) [FLAC (tracks+.cue), lossless]
  • (2012) Rammstein / Mein Herz brennt (Industrial, Tanz-Metal) [FLAC (tracks ...
  • (2011) Ассаи / ОМ (Rap) [FLAC (tracks+.cue), lossless]
  • (2012) Словетский / Мозайка (Rap) [FLAC (tracks+.cue), lossless]
  • Информация
    Посетители, находящиеся в группе Гости, не могут оставлять комментарии к данной публикации.