вход на сайт

Имя пользователя :
Пароль :

Восстановление пароля Регистрация
(2013) 9 грамм,Bugz,Безумный Майк,SDF / Роза ветров (Rap, Hip-Hop) [FLAC (Tracks+.Cue), Lossless]
Рейтинг:
(голосов: 1)



[img]{THEME}/images/logopost.png[/img]



Исполнитель: 9 грамм,Bugz,Безумный Майк,SDF
Альбом: Роза ветров
Тип альбома: Студийный
Год выпуска: 2013
Жанр: Rap, Hip-Hop
Страна: Россия
Аудиокодек: FLAC (*.flac)
Тип рипа: Tracks+.Cue
Битрейт: lossless
Продолжительность: 01:03:04

Об издании: 9 грамм, Bugz, Безумный Майк, SDF - в совместном альбоме «Роза ветров» вышли на совершенно новый уровень.
Музыкальная составляющая альбома, включающая духовую секцию, гитарные рифы, впечатляет. Видна долгая кропотливая работа, раскрывающая ребят, не только с привычной всем стороны сильных «текстовиков», но и как серьезных музыкантов.
Почти ничего не делая для своей популярности, представители «Бастаз Рекордс», одни из самых обсуждаемых персонажей рэп-тусовки, собирают сотни тысяч просмотров на Youtube.
Новый альбом является одним из самых ожидаемых в 2013 г.

Tреклист:

01. Здесь [05:35]
02. Хип-Хоп [04:28]
03. Что случилось [04:44]
04. Вдаль [05:02]
05. За этой дверью [03:54]
06. Город Дыма [04:35]
07. Отдыхай [03:14]
08. Шими [05:14]
09. Тыщи [04:28]
10. Роза ветров [03:18]
11. Триллер [04:43]
12. Мысли вслух [04:12]
13. Я застрелил своего друга [05:48]
14. Это Урал [03:43]

Лог создания рипа ▼TextExact Audio Copy V1.0 beta 3 from 29. August 2011
Отчёт EAC об извлечении, выполненном 18. июля 2013, 21:28
9 грамм,Bugz,Безумный Майк,SDF / Роза ветров
Дисковод: Optiarc DVD RW AD-7280S Adapter: 0 ID: 0
Режим чтения : Достоверность
Использование точного потока : Да
Отключение кэша аудио : Да
Использование указателей C2 : Нет
Коррекция смещения при чтении : 48
Способность читать области Lead-in и Lead-out : Нет
Заполнение пропущенных сэмплов тишиной : Да
Удаление блоков с тишиной в начале и конце : Нет
При вычислениях CRC использовались нулевые сэмплы : Да
Интерфейс : Встроенный Win32-интерфейс для Win NT/2000
Обработка зазоров : Добавлено к предыдущему треку
Выходной формат : Пользовательский кодировщик
Выбранный битрейт : 128 kBit/s
Качество : Высокий
Добавление ID3-тега : Нет
Утилита сжатия : C:Program Files (x86)FLACflac.exe
Дополнительные параметры : -V -8 -T "Genre=%genre%" -T "Artist=%artist%" -T "Title=%title%" -T "Album=%albumtitle%" -T "Date=%year%" -T "Tracknumber=%tracknr%" -T "Comment=%comment%" %source%
TOC извлечённого CD
Трек | Старт | Длительность | Начальный сектор | Конечный сектор
---------------------------------------------------------------------
1 | 0:00.00 | 5:37.53 | 0 | 25327
2 | 5:37.53 | 4:30.04 | 25328 | 45581
3 | 10:07.57 | 4:46.50 | 45582 | 67081
4 | 14:54.32 | 5:04.07 | 67082 | 89888
5 | 19:58.39 | 3:56.46 | &n
af45996aea6f169cb9c4f4fce222e35b3af1f32b(2013) 9 грамм,Bugz,Безумный Майк,SDF / Роза ветров (Rap, Hip-Hop) [FLAC (Tracks+.Cue), Lossless] (2013) 9 грамм,Bugz,Безумный Майк,SDF / Роза ветров (Rap, Hip-Hop) [FLAC (Tracks+.Cue), Lossless] " />

Аплоадер: Админ, дата: 19-07-2013, 18:29, торрент скачан: 359 раз

Понравилась раздача? Посмотрите эти:
  • (2012) Sting / Fifteen Healing Bites (Pop Rock)(Chinese Dragon) [FLAC (trac ...
  • (2013) Linkin Park / Underground XIII (Alternative Rock) [FLAC (tracks+.cue ...
  • (2013) Ahimas / Алатан (Rap, Hip-Hop) [FLAC (Tracks+.Cue), Lossless]
  • (2013) Смоки Мо / Младший (Rap, Hip-Hop) [FLAC (Tracks+.Cue), Lossless]
  • (2013) 9 Грамм, Bugz, Безумный Майк & SDF / Роза Ветров (Rap | Hip-Hop) [MP ...
  • (2013) Маклай и Ганза / Статус-Кво (Rap, Hip-Hop) [FLAC (Tracks+.Cue), Loss ...
  • (2013) Lone / Спутник (Rap, Hip-Hop) [FLAC (Tracks+.Cue), Lossless]
  • (2013) Стриж / Игристое (Rap, Hip-Hop) [FLAC (Tracks+.Cue), Lossless]
  • (2013) Баста / Баста 4 (Rap, Hip-Hop) [FLAC (Tracks+.Cue), Lossless]
  • (2013) Loc-Dog & Tony VA / Все знают всё (Rap, Hip-Hop) [FLAC (Tracks+.Cue ...
  • (1989) Fausto Papetti / Magic Sax [Vol. 2] (Instrumental) [FLAC (tracks+.cu ...
  • (2012) Рем Дигга / Черника (Rap) [FLAC (tracks+.cue), lossless]
  • (2012) Три Кита (Зануда, Gipsy King, Тато) / Три Кита (Rap) [FLAC (tracks+. ...
  • (2012) The Rasmus / The Rasmus (Alternative Rock/Melodic Rock) [FLAC (track ...
  • (1993) Mireille Mathieu / Chante Piaf (Pop) [FLAC (tracks+.cue), lossless]
  • (2011, Сборник) VA / The Worlds Greatest Ballads (3CD) (Pop) [FLAC (tracks+ ...
  • (2012) Guf / Сам И ... (Rap) [FLAC (tracks+.cue), lossless]
  • (2012) Адвайта / Не спать (Rap) [FLAC (tracks+.cue), lossless]
  • (2012) Триада / Мои глаза открыты (Rap) [FLAC (tracks+.cue), lossless]
  • (2012) KREC / Молча проще (Rap) [FLAC (tracks+.cue), lossless]
  • (2012) Brick Bazuka / Слои (Rap) [FLAC (tracks+.cue), lossless]
  • (2012) Птаха / Старые тайны (Rap) [FLAC (tracks+.cue), lossless]
  • (2012) Rammstein / Mein Herz brennt (Industrial, Tanz-Metal) [FLAC (tracks ...
  • (2011) Ассаи / ОМ (Rap) [FLAC (tracks+.cue), lossless]
  • (2012) Словетский / Мозайка (Rap) [FLAC (tracks+.cue), lossless]
  • Информация
    Посетители, находящиеся в группе Гости, не могут оставлять комментарии к данной публикации.