вход на сайт

Имя пользователя :
Пароль :

Восстановление пароля Регистрация
(2013) Ahimas / Алатан (Rap, Hip-Hop) [FLAC (Tracks+.Cue), Lossless]
Рейтинг:
(голосов: 1)



[img]{THEME}/images/logopost.png[/img]



Исполнитель: Ahimas
Альбом: Алатан
Тип альбома: Студийный
Год выпуска: 2013
Жанр: Rap, Hip-Hop
Страна: Россия
Аудиокодек: FLAC (*.flac)
Тип рипа: Tracks+.Cue
Битрейт: lossless
Продолжительность: 00:57:42
При участии: Loc-Dog, Нигатив (Триада), Три Кита, Slim (CENTR), Тати, Легенды Про.

Об издании: Спасибо всем кто помогал в создании альбома и тем кто принимал в нем непосредственное участие!) Отдельное спасибо Теме и Мише (Recordie rec) за звук на альбоме. Спасибо моим ребятам из Легенд про, спасибо всей моей семье за терпение. Спасибо ЦАО, Great Stuff, спасибо Муслиму и можно дальше еще долго перечислять)

Tреклист:

01. Хип-хоп в голове (scratch Dj Prosha) [04:28]
02. Марадонна [03:35]
03. Приснись мне (При уч. Нигатив, Дым) [03:57]
04. Магазин на диване (При уч. Loc-Dog)[03:29]
05. Черная кошка [04:12]
06. На замедленной планете (При уч. Три Кита) [06:30]
07. Временем стать (При уч. Тати) [03:31]
08. Нулевая отметка [03:47]
09. Ребята с нашего двора (При уч. Slim) [03:16]
10. Интервью (скит) [01:38]
11. Валентность (При уч. Амир, Быба (scratch Dj Prosha)) [03:08]
12. Улетай моя любовь (При уч. Быба) [03:21]
13. Алатан (скит) [01:20]
14. Пупок [02:49]
15. Утро-вечер (При уч. Амир) [03:22]
16. Разные острова (При уч. Loc-Dog) [04:25]
17. Если я забуду завтра (При уч. Рам) [03:32]

Лог создания рипа ▼TextExact Audio Copy V1.0 beta 3 from 29. August 2011
Отчёт EAC об извлечении, выполненном 2. ноября 2013, 17:29
Ahimas / Алатан
Дисковод: Optiarc DVD RW AD-7280S Adapter: 0 ID: 0
Режим чтения : Достоверность
Использование точного потока : Да
Отключение кэша аудио : Да
Использование указателей C2 : Нет
Коррекция смещения при чтении : 48
Способность читать области Lead-in и Lead-out : Нет
Заполнение пропущенных сэмплов тишиной : Да
Удаление блоков с тишиной в начале и конце : Нет
При вычислениях CRC использовались нулевые сэмплы : Да
Интерфейс : Встроенный Win32-интерфейс для Win NT/2000
Обработка зазоров : Добавлено к предыдущему треку
Выходной формат : Пользовательский кодировщик
Выбранный битрейт : 896 kBit/s
Качество : Высокий
Добавление ID3-тега : Нет
Утилита сжатия : C:Program Files (x86)FLACflac.exe
Дополнительные параметры : -V -8 -T "Genre=%genre%" -T "Artist=%artist%" -T "Title=%title%" -T "Album=%albumtitle%" -T "Date=%year%" -T "Tracknumber=%tracknr%" -T "Comment=%comment%" %source%
TOC извлечённого CD
Трек | Старт | Длительность | Начальный сектор | Конечный сектор
---------------------------------------------------------------------
1 | 0:00.00 | 4:30.60 | 0 | 20309
2 | 4:30.60 | 3:37.19 | 20310 | 36603
3 | 8:08.04 | 3:59.62 | 36604 | 54590
4 | 12:07.66 | 3:30.48 | &n
c4df67485561beeda820ad8f733d07a5f6596100(2013) Ahimas / Алатан (Rap, Hip-Hop) [FLAC (Tracks+.Cue), Lossless] (2013) Ahimas / Алатан (Rap, Hip-Hop) [FLAC (Tracks+.Cue), Lossless] " />

Аплоадер: Админ, дата: 4-11-2013, 11:40, торрент скачан: 359 раз

Понравилась раздача? Посмотрите эти:
  • (2012) Sting / Fifteen Healing Bites (Pop Rock)(Chinese Dragon) [FLAC (trac ...
  • (2013) Linkin Park / Underground XIII (Alternative Rock) [FLAC (tracks+.cue ...
  • (2013) Ahimas / Алатан (при уч.Loc-Dog, Нигатив (Триада), Три Кита, Slim (C ...
  • (2013) Ahimas / Алатан (при уч. Loc Dog, Три Кита, Тати, Дым, Быба) (Rap) [ ...
  • (2013) Смоки Мо / Младший (Rap, Hip-Hop) [FLAC (Tracks+.Cue), Lossless]
  • (2013) 9 грамм,Bugz,Безумный Майк,SDF / Роза ветров (Rap, Hip-Hop) [FLAC (T ...
  • (2013) Маклай и Ганза / Статус-Кво (Rap, Hip-Hop) [FLAC (Tracks+.Cue), Loss ...
  • (2013) Lone / Спутник (Rap, Hip-Hop) [FLAC (Tracks+.Cue), Lossless]
  • (2013) Стриж / Игристое (Rap, Hip-Hop) [FLAC (Tracks+.Cue), Lossless]
  • (2013) Баста / Баста 4 (Rap, Hip-Hop) [FLAC (Tracks+.Cue), Lossless]
  • (2013) Loc-Dog & Tony VA / Все знают всё (Rap, Hip-Hop) [FLAC (Tracks+.Cue ...
  • (1989) Fausto Papetti / Magic Sax [Vol. 2] (Instrumental) [FLAC (tracks+.cu ...
  • (2012) Рем Дигга / Черника (Rap) [FLAC (tracks+.cue), lossless]
  • (2012) Три Кита (Зануда, Gipsy King, Тато) / Три Кита (Rap) [FLAC (tracks+. ...
  • (2012) The Rasmus / The Rasmus (Alternative Rock/Melodic Rock) [FLAC (track ...
  • (1993) Mireille Mathieu / Chante Piaf (Pop) [FLAC (tracks+.cue), lossless]
  • (2012) Guf / Сам И ... (Rap) [FLAC (tracks+.cue), lossless]
  • (2012) Адвайта / Не спать (Rap) [FLAC (tracks+.cue), lossless]
  • (2012) Триада / Мои глаза открыты (Rap) [FLAC (tracks+.cue), lossless]
  • (2012) KREC / Молча проще (Rap) [FLAC (tracks+.cue), lossless]
  • (2012) Brick Bazuka / Слои (Rap) [FLAC (tracks+.cue), lossless]
  • (2012) Птаха / Старые тайны (Rap) [FLAC (tracks+.cue), lossless]
  • (2012) Rammstein / Mein Herz brennt (Industrial, Tanz-Metal) [FLAC (tracks ...
  • (2011) Ассаи / ОМ (Rap) [FLAC (tracks+.cue), lossless]
  • (2012) Словетский / Мозайка (Rap) [FLAC (tracks+.cue), lossless]
  • Информация
    Посетители, находящиеся в группе Гости, не могут оставлять комментарии к данной публикации.