вход на сайт

Имя пользователя :
Пароль :

Восстановление пароля Регистрация
(2012) Словетский / Мозайка (Rap) [FLAC (tracks+.cue), lossless]
Рейтинг:
(голосов: 1)



[img]{THEME}/images/logopost.png[/img]



Исполнитель: Словетский
Альбом: Мозайка
Страна: Россия
Тип альбома: Студийный
Год выпуска: 2012
Жанр: Rap
Формат: FLAC (tracks+.cue)
Битрейт: lossless
Продолжительность: 01:17:20

Tреклист
01. Вход (01.24)
02. Москва Москва (03.39)
03. Agent Provocateur (02.39)
04. Зазасиял (05.06)
05. Пока на льду ft. Ноггано(03.54)
06. Морячок (04.32)
07. Совсем розовый ft. Banuma (05.09)
08. Любитель (03.57)
09. Часть 4ая ft. Tato (04.03)
10. Слышишь (02.51)
11. Непобедимые (03.34)
12. По душам ft. Митя Северный(04.08)
13. Плюнуть (03.08)
14. Самый ДМБ (05.16)
15. Звёзды ft. Настя Попова, Daffy(04.26)
16. Барцуха (03.42)
17. Опечаленный (02.21)
18. Panerai PT. 3 (05.18)
19. Ящеры (03.39)
20. Выход (00.03)
21. С ней ft. Daffy (03.17)

"Лог создания рипа" ▼TextExact Audio Copy V1.0 beta 3 from 29. August 2011

Отчёт EAC об извлечении, выполненном 8. июня 2012, 18:05

Slovetskii / Mozaika

Дисковод: ATAPI iHAS524 B Adapter: 0 ID: 1

Режим чтения : Достоверность
Использование точного потока : Да
Отключение кэша аудио : Да
Использование указателей C2 : Нет

Коррекция смещения при чтении : 6
Способность читать области Lead-in и Lead-out : Нет
Заполнение пропущенных сэмплов тишиной : Да
Удаление блоков с тишиной в начале и конце : Нет
При вычислениях CRC использовались нулевые сэмплы : Да
Интерфейс : Встроенный Win32-интерфейс для Win NT/2000
Обработка зазоров : Добавлено к предыдущему треку

Выходной формат : Пользовательский кодировщик
Выбранный битрейт : 128 kBit/s
Качество : Высокий
Добавление ID3-тега : Нет
Утилита сжатия : C:Program Files (x86)Exact Audio CopyFlacflac.exe
Дополнительные параметры : -V -8 -T "Genre=%genre%" -T "Artist=%artist%" -T "Title=%title%" -T "Album=%albumtitle%" -T "Date=%year%" -T "Tracknumber=%tracknr%" -T "Comment=%comment%" %source%

TOC извлечённого CD

Трек | Старт | Длительность | Начальный сектор | Конечный сектор
---------------------------------------------------------------------
1 | 0:00.00 | 1:23.65 | 0 | 6289
2 | 1:23.65 | 3:39.58 | 6290 | 22772
3 | 5:03.48 | 2:39.03 | 22773 | 34700
4 | 7:42.51 | 5:06.37 | 34701 | 57687
5 | 12:49.13 | 3:54.32 | 57688 | 75269
6 | 16:43.45 | 4:32.41 | 75270 | 95710
7 | 21:16.11 | 5:09.31 | &nb
b14a7255cd4627d0b8a975ca830a07322ad1c79e(2012) Словетский / Мозайка (Rap) [FLAC (tracks+.cue), lossless] (2012) Словетский / Мозайка (Rap) [FLAC (tracks+.cue), lossless] " />

Аплоадер: Админ, дата: 9-06-2012, 14:49, торрент скачан: 359 раз

Понравилась раздача? Посмотрите эти:
  • (2012) Sting / Fifteen Healing Bites (Pop Rock)(Chinese Dragon) [FLAC (trac ...
  • (2013) Linkin Park / Underground XIII (Alternative Rock) [FLAC (tracks+.cue ...
  • (2013) Смоки Мо / Младший (Rap, Hip-Hop) [FLAC (Tracks+.Cue), Lossless]
  • (2013) Маклай и Ганза / Статус-Кво (Rap, Hip-Hop) [FLAC (Tracks+.Cue), Loss ...
  • (2013) Lone / Спутник (Rap, Hip-Hop) [FLAC (Tracks+.Cue), Lossless]
  • (2013) Стриж / Игристое (Rap, Hip-Hop) [FLAC (Tracks+.Cue), Lossless]
  • (2013) Баста / Баста 4 (Rap, Hip-Hop) [FLAC (Tracks+.Cue), Lossless]
  • (2013) Loc-Dog & Tony VA / Все знают всё (Rap, Hip-Hop) [FLAC (Tracks+.Cue ...
  • (1989) Fausto Papetti / Magic Sax [Vol. 2] (Instrumental) [FLAC (tracks+.cu ...
  • (2012) Рем Дигга / Черника (Rap) [FLAC (tracks+.cue), lossless]
  • (2012) Три Кита (Зануда, Gipsy King, Тато) / Три Кита (Rap) [FLAC (tracks+. ...
  • (2005, сборник) VA / Магия Гитары (Instrumental) [FLAC (tracks+.cue), lossl ...
  • (2011) ГРОТ / О Пути По Встречной (Rap) [FLAC (tracks+.cue), lossless]
  • (2012) The Rasmus / The Rasmus (Alternative Rock/Melodic Rock) [FLAC (track ...
  • (1993) Mireille Mathieu / Chante Piaf (Pop) [FLAC (tracks+.cue), lossless]
  • (2011, Сборник) VA / The Worlds Greatest Ballads (3CD) (Pop) [FLAC (tracks+ ...
  • (2012) Guf / Сам И ... (Rap) [FLAC (tracks+.cue), lossless]
  • (2012) Адвайта / Не спать (Rap) [FLAC (tracks+.cue), lossless]
  • (2012) Триада / Мои глаза открыты (Rap) [FLAC (tracks+.cue), lossless]
  • (2012) KREC / Молча проще (Rap) [FLAC (tracks+.cue), lossless]
  • (2012) Brick Bazuka / Слои (Rap) [FLAC (tracks+.cue), lossless]
  • (2012) Птаха / Старые тайны (Rap) [FLAC (tracks+.cue), lossless]
  • (2012) Rammstein / Mein Herz brennt (Industrial, Tanz-Metal) [FLAC (tracks ...
  • (2011) Ассаи / ОМ (Rap) [FLAC (tracks+.cue), lossless]
  • (2012) Ария / Live In Studio (Heavy Metal) [FLAC (image+.сue), lossless]
  • Информация
    Посетители, находящиеся в группе Гости, не могут оставлять комментарии к данной публикации.