вход на сайт

Имя пользователя :
Пароль :

Восстановление пароля Регистрация
(2012) Влади (Каста) / Ясно! (Rap) [ FLAC (tracks+.cue), lossless]
Рейтинг:
(голосов: 1)



[img]{THEME}/images/logopost.png[/img]




Исполнитель:Влади (Каста)
Альбом:Ясно!
Тип альбома:Студийный
Год выпуска:2012
Жанр:Rap
Формат: FLAC (tracks+.cue)
Битрейт: lossless
Продолжительность: 00:53:06

Tреклист:
[03:41] 01. Сочиняй мечты (feat. Уля Глушкова (Wow band))
[04:20] 02. Прощание
[03:35] 03. Пусть пригодится
[04:00] 04. Все лучше тебя
[04:26] 05. Не замечаем
[03:42] 06. В студийной будке
[04:24] 07. Теплые впечатления
[03:10] 08. Эпизод
[04:05] 09. Страницы (Такова жизнь)
[03:32] 10. Вращайся, диск
[03:27] 11. Тебе в прикол (feat. Хамиль & Змей)
[04:29] 12. Обо мне
[06:03] 13. Слово о полку Игореве (1187-2012 г.г.) (Бонус)

"Лог создания рипа" ▼
Text
Exact Audio Copy V1.0 beta 3 from 29. August 2011

Отчёт EAC об извлечении, выполненном 18. февраля 2012, 23:45

Каста / ЯСНО!

Дисковод: hp CDDVDW TS-L633R Adapter: 0 ID: 1

Режим чтения : Достоверность
Использование точного потока : Да
Отключение кэша аудио : Да
Использование указателей C2 : Нет

Коррекция смещения при чтении : 6
Способность читать области Lead-in и Lead-out : Нет
Заполнение пропущенных сэмплов тишиной : Да
Удаление блоков с тишиной в начале и конце : Нет
При вычислениях CRC использовались нулевые сэмплы : Да
Интерфейс : Встроенный Win32-интерфейс для Win NT/2000
Обработка зазоров : Добавлено к предыдущему треку

Выходной формат : Внутренние WAV-операции
Формат сэмплов : 44.100 Гц; 16 бит; стерео

TOC извлечённого CD

Трек | Старт | Длительность | Начальный сектор | Конечный сектор
---------------------------------------------------------------------
1 | 0:00.00 | 3:41.03 | 0 | 16577
2 | 3:41.03 | 4:20.17 | 16578 | 36094
3 | 8:01.20 | 3:35.44 | 36095 | 52263
4 | 11:36.64 | 4:00.38 | 52264 | 70301
5 | 15:37.27 | 4:26.26 | 70302 | 90277
6 | 20:03.53 | 3:42.54 | 90278 | 106981
7 | 23:46.32 | 4:24.47 | 106982 | 126828
8 | 28:11.04 | 3:10.11 | 126829 | 141089
9 | 31:21.15 | 4:05.68 | 141090 | 159532
10 | 35:27.08 | 3:32.13 | 159533 | 175445
11 | 38:59.21 | 3:27.38 |&n
ab4970c81bf2148ba950bdf6e48cecff09de8960(2012) Влади (Каста) / Ясно! (Rap) [ FLAC (tracks+.cue), lossless] (2012) Влади (Каста) / Ясно! (Rap) [ FLAC (tracks+.cue), lossless] " />

Аплоадер: Админ, дата: 10-03-2012, 19:31, торрент скачан: 359 раз

Понравилась раздача? Посмотрите эти:
  • (2000) Lenny Kravitz / Greatest Hits (Rock, Funk) [FLAC (image+.cue), lossl ...
  • (2013) Баста / Баста 4 (Rap, Hip-Hop) [FLAC (Tracks+.Cue), Lossless]
  • (2013) Loc-Dog & Tony VA / Все знают всё (Rap, Hip-Hop) [FLAC (Tracks+.Cue ...
  • (2012) Рем Дигга / Черника (Rap) [FLAC (tracks+.cue), lossless]
  • (2012) Три Кита (Зануда, Gipsy King, Тато) / Три Кита (Rap) [FLAC (tracks+. ...
  • (2011) Schiller / Timeline (Electronic, Lo-Fi, Trance, Ambient, Pop) [FLAC ...
  • (2009) НОЧНЫЕ СНАЙПЕРЫ — Южный полюс (русский рок, сингл) [FLAC (lossless), ...
  • (2006) Батырхан Шукенов/ Отан Ана (Pop) [FLAC (image+.cue) lossless]
  • (2010) Хамиль и Змей (Каста) / ХЗ (Rap) [APE(image+.cue), lossless]
  • (2010) Krec / Осколки (Rap) [FLAC (tracks+.cue), lossless]
  • (2011) Slim (Centr) / Отличай Людей (Rap) [FLAC (tracks+.cue)lossless]
  • (2011) Легенды Про / Желтый Дом (Rap) [FLAC (tracks+.cue), Lossless]
  • (2011) CENTR и Легенды Про... / Легенды Про...CENTR (Rap) [FLAC (tracks+.cu ...
  • (2012) The Rasmus / The Rasmus (Alternative Rock/Melodic Rock) [FLAC (track ...
  • (2012) Guf / Сам И ... (Rap) [FLAC (tracks+.cue), lossless]
  • (2012) Триада / Мои глаза открыты (Rap) [FLAC (tracks+.cue), lossless]
  • (2012) Slim (CENTR) / CEN-Тропе (Rap) [FLAC (tracks+.cue), lossless]
  • (2012) KREC / Молча проще (Rap) [FLAC (tracks+.cue), lossless]
  • (2012) Птаха / Старые тайны (Rap) [FLAC (tracks+.cue), lossless]
  • (2010) Агата Кристи / Эпилог (Rock) [FLAC (tracks+.cue), lossless]
  • (2011) Капа / Азиат (Рэп) [FLAC (tracks + .cue)lossless]
  • (2010) 25/17 (Иезекииль 25:17, Ант, Бледный) / Зебра (Rap) [FLAC (tracks+.c ...
  • (2011) Ассаи / ОМ (Rap) [FLAC (tracks+.cue), lossless]
  • (2012) Влади (Каста) / Ясно (Hip-Hop) [MP3, 320/CBR]
  • (2012) Словетский / Мозайка (Rap) [FLAC (tracks+.cue), lossless]
  • Информация
    Посетители, находящиеся в группе Гости, не могут оставлять комментарии к данной публикации.