вход на сайт

Имя пользователя :
Пароль :

Восстановление пароля Регистрация
(2009) Kamazz (3NT) / Завязал (Hip-Hop) [APE (image+.cue) lossless]
Рейтинг:
(голосов: 1)



[img]{THEME}/images/logopost.png[/img]



Исполнитель: Kamazz (3NT)
Альбом: Завязал
Страна: Россия
Тип альбома: Студийный
Год выпуска: 2009
Жанр: Hip-Hop
Формат: APE (image+.сue)
Битрейт: lossless
Log-файл: присутствует
Продолжительность: 00:59:56
Cканы: укомплектовано

Tреклист:
[01:35] 01. Kamazz (3NT) - Интро (Жди В Гости)
[03:04] 02. Kamazz (3NT) - Вставай (Ft. Dima 3NT)
[03:42] 03. Kamazz (3NT) - Музыка Мой Допинг (Ft. Дуня)
[03:10] 04. Kamazz (3NT) - Завязал
[03:52] 05. Kamazz (3NT) - Нюансы (Ft. Dima 3NT)
[03:46] 06. Kamazz (3NT) - Теряем Контроль 2 (Ft. Батишта)
[03:51] 07. Kamazz (3NT) - Грустная Сказка (Ft. Dima 3NT)
[04:11] 08. Kamazz (3NT) - Метро 2 (Ft. Змей (Каста))
[04:26] 09. Kamazz (3NT) - Трое (Ft. Olga)
[03:00] 10. Kamazz (3NT) - Мой Ангел (Ft. Olga)
[04:04] 11. Kamazz (3NT) - Влом (Ft. Андрей Салтыков)
[03:43] 12. Kamazz (3NT) - Sexy Girl (Ft. Dima 3NT & Olga)
[03:40] 13. Kamazz (3NT) - Моя
[04:18] 14. Kamazz (3NT) - Сын
[05:36] 15. Kamazz (3NT) - Неоновый День (Ft. Dima 3NT)
[03:51] 16. Kamazz (3NT) - Трое (Radio Edit) [Ft. Olga]

"СDDA" ▼"log" ▼TextExact Audio Copy V0.99 prebeta 4 from 23. January 2008

Отчёт EAC об извлечении, выполненном 8. апреля 2010, 22:43

Kamazz (3NT) / Завязал

Дисковод: ASUS DRW-1608P Adapter: 0 ID: 0

Режим чтения : Достоверность
Использование точного потока : Да
Отключение кэша аудио : Да
Использование указателей C2 : Нет

Коррекция смещения при чтении : 48
Способность читать области Lead-in и Lead-out : Нет
Заполнение пропущенных сэмплов тишиной : Да
Удаление блоков с тишиной в начале и конце : Нет
При вычислениях CRC использовались нулевые сэмплы : Да
Интерфейс : Встроенный Win32-интерфейс для Win NT/2000

Выходной формат : Внутренние WAV-операции
Формат сэмплов : 44.100 Гц; 16 бит; стерео


TOC извлечённого CD

Трек | Старт | Длительность | Начальный сектор | Конечный сектор
---------------------------------------------------------------------
1 | 0:00.00 | 1:35.56 | 0 | 7180
2 | 1:35.56 | 3:04.68 | 7181 | 21048
3 | 4:40.49 | 3:42.00 | 21049 | 37698
4 | 8:22.49 | 3:10.63 | 37699 | 52011
5 | 11:33.37 | 3:52.11 | 52012 | 69422
6 | 15:25.48 | 3:46.37 | 69423 | 86409
7 | 19:12.10 | 3:51.66 | 86410 | 103800
8 | 23:04.01 | 4:11.50 | 103801 | 122675
9 | 27:15.
bf595359a38e175d28d4e355ce2fb718ad6221c5(2009) Kamazz (3NT) / Завязал (Hip-Hop) [APE (image+.cue) lossless] (2009) Kamazz (3NT) / Завязал (Hip-Hop) [APE (image+.cue) lossless] " />

Аплоадер: Админ, дата: 22-11-2011, 11:59, торрент скачан: 359 раз

Понравилась раздача? Посмотрите эти:
  • (2012) Григорий Лепс / Полный вперёд (Шансон) [FLAC (image+.cue), Lossless ...
  • (2013) 3G / В фольге (Рэп) [MP3, 320kbps/CBR]
  • (дискография, 1983-2008) MADONNA (pop / dance) [WavPack (image+.cue) lossle ...
  • (2000) Tic Tac Toe / Ist der Ruf erst ruiniert... (Rap,Hip-hop) [Lossless, ...
  • (2007) Morandi / N3xt (Pop) [APE, (image + .cue), lossless]
  • (2010) Баста / Баста 3 (Rap) [APE (image+.cue), lossless]
  • (2010) ST1M / Октябрь (Rap) [APE(image+.cue), lossless]
  • (2006) Батырхан Шукенов/ Отан Ана (Pop) [FLAC (image+.cue) lossless]
  • (2010) Хамиль и Змей (Каста) / ХЗ (Rap) [APE(image+.cue), lossless]
  • (2010) ДиДюЛя / Аромат (flamenco, instrumental, folk) [APE (image + .cue), ...
  • (1985) BABYS GANG / Challenger (Pop,Italo Disco) [APE(image+.cue)lossless] ...
  • (2010) ДаБац (Da Budz) / Вершки Да Корешки(Rap) [APE (image+.cue), lossless ...
  • (2005) плюм-Бум / Чистая правда (Funk, Reggae, Pop-Punk) [APE(image+.cue), ...
  • (2011) АукцЫон / Юла (Rock) [APE (image+.cue), lossless]
  • (2003) THE BLACK EYED PEAS / Elephunk (RnB) [Ape (image+.cue), lossless]
  • (2009) Rihanna / Rated R (R`n`B) [APE (image+.cue)]
  • (2009) Guf / Дома (Rap) [APE (image+.cue)]
  • Битва за респект 3: Начни сегодня (2009)
  • (1993) Любовь Успенская / Любимый (шансон) [APE (image+.cue), lossless]
  • (2009) Челси / Точка возврата (Pop) [APE (image+.cue), lossless]
  • Kamazz (3NT) / Трое [2011, Rap, WebRip]
  • (2009, Cборник) Madonna / Greatest Hits [CD1 + CD2] (Pop) [APE (image+.cue) ...
  • (2011) N1NT3NDO / N1NT3NDO (Rap) [APE (image+.сue), lossless]
  • (2004) Ex-Сектор Газа / Огненный рай (Punk-Rock) [FLAC (image+.cue), lossle ...
  • (2008) Студия 80 / Придуманный Мир (Pop) [FLAC (image+.cue), lossless]
  • Информация
    Посетители, находящиеся в группе Гости, не могут оставлять комментарии к данной публикации.