вход на сайт

Имя пользователя :
Пароль :

Восстановление пароля Регистрация
(2010) 25/17 (Иезекииль 25:17, Ант, Бледный) / Зебра (Rap) [FLAC (tracks+.cue)lossless]
Рейтинг:
(голосов: 1)



[img]{THEME}/images/logopost.png[/img]




Исполнитель: 25/17 (Иезекииль 25:17, Ант, Бледный)
Альбом: Зебра
Тип альбома: Студийный
Год выпуска: 2010
Жанр: Rap
Формат: FLAC (tracks+.cue)
Битрейт: lossless
Продолжительность: 00:55:10

Tреклист:
▼01. Зачем (0:00:41)
02. Ч.Б. (0:03:32)
03. Березовая (0:03:04)
04. Просыпайтесь! (0:02:48)
05. Молитва (0:03:13)
06. Мама, Мы Все Тяжело Больны (0:02:29)
07. Ржавчина (0:03:15)
08. Виражи (0:03:27)
09. Плюшевая (0:02:58)
10. Вирус (Feat. MC 1.8) (0:03:08)
11. Пожизненно (Feat.Тома Амот) (0:02:31)
12. Огонь (Ант Rmx) (0:02:35)
13. Птица (0:03:31)
14. Снайпер (0:03:04)
15. Бесконечное Одиночество (0:03:13)
16. Жду Чуда (0:03:54)
17. Мои Кеды (0:02:55)
18. Давай Делай! (0:02:59)
19. Главное (0:01:47)
"Отчет EAC:" ▼Exact Audio Copy V0.99 prebeta 4 from 23. January 2008

Отчёт EAC об извлечении, выполненном 2. марта 2011, 18:28

25-17 / Зебра

Дисковод: HL-DT-STDVD-RW_GSA-H41N Adapter: 0ID: 1

Режим чтения : Достоверность
Использование точного потока : Да
Отключение кэша аудио: Да
Использование указателей C2: Нет

Коррекция смещения при чтении : 667
Способность читать области Lead-in и Lead-out : Нет
Заполнение пропущенных сэмплов тишиной: Да
Удаление блоков с тишиной в начале и конце: Нет
При вычислениях CRC использовались нулевые сэмплы : Да
Интерфейс : Установленный внешний ASPI-интерфейс
Обработка зазоров : Добавлено к предыдущему треку

Выходной формат: Пользовательский кодировщик
Выбранный битрейт: 1024 kBit/s
Качество : Высокий
Добавление ID3-тэга: Нет
Утилита сжатия : C:Program Filesfoobar2000configscodecsflac.exe
Дополнительные параметры : -8 -V -T "ARTIST=%a" -T "TITLE=%t" -T "ALBUM=%g" -T "DATE=%y" -T "TRACKNUMBER=%n" -T "GENRE=%m" -T "COMMENT=EAC FLAC -8" %s


TOC извлечённого CD

Трек | Старт| Длительность | Начальный сектор | Конечный сектор
---------------------------------------------------------------------
1|0:00.00 |0:41.29 | 0| 3103
2|0:41.29 |3:32.20 |3104|19023
3|4:13.49 |3:04.29 | 19024|32852&
6ec80ac2b679aeb1a70a4daef656192770b3109b(2010) 25/17 (Иезекииль 25:17, Ант, Бледный) / Зебра (Rap) [FLAC (tracks+.cue)lossless] (2010) 25/17 (Иезекииль 25:17, Ант, Бледный) / Зебра (Rap) [FLAC (tracks+.cue)lossless] " />

Аплоадер: Админ, дата: 14-09-2011, 17:56, торрент скачан: 359 раз

Понравилась раздача? Посмотрите эти:
  • (2013) Баста / Баста 4 (Rap, Hip-Hop) [FLAC (Tracks+.Cue), Lossless]
  • (2012) Рем Дигга / Черника (Rap) [FLAC (tracks+.cue), lossless]
  • (2010) Мафик / Ангел (Шансон) [FLAC(image+cue), lossless]
  • (2008) ST / Сто из Ста (Rap) [FLAC(track+.cue), lossless]
  • (2010) Krec / Осколки (Rap) [FLAC (tracks+.cue), lossless]
  • (2010) Зануда ака Птаха (Centr) / Папиросы (Rap) [FLAC(track+.cue), lossles ...
  • (2010) ДеЦлЪ / Здесь И Сейчас (Rap) [FLAC(track+.cue), lossless]
  • (2010) Loc-Dog / Паранойя (Rap) [FLAC (track+.cue), lossless]
  • (2011) Slim (Centr) / Отличай Людей (Rap) [FLAC (tracks+.cue)lossless]
  • (2011) Легенды Про / Желтый Дом (Rap) [FLAC (tracks+.cue), Lossless]
  • (2011) ГРОТ / О Пути По Встречной (Rap) [FLAC (tracks+.cue), lossless]
  • (2003) Joe Dassin / Grand Collection (Pop/Chanson) [FLAC (tracks+.cue), los ...
  • (2012) The Rasmus / The Rasmus (Alternative Rock/Melodic Rock) [FLAC (track ...
  • (2012) Триада / Мои глаза открыты (Rap) [FLAC (tracks+.cue), lossless]
  • (2012) KREC / Молча проще (Rap) [FLAC (tracks+.cue), lossless]
  • (2010) Агата Кристи / Эпилог (Rock) [FLAC (tracks+.cue), lossless]
  • (2011) Капа / Азиат (Рэп) [FLAC (tracks + .cue)lossless]
  • (2011) Slim & Konstantah / Азимут (Rap) [ALAC(tracks)lossless]
  • (2011) Смоки МО (Некий Молла) / Время Тигра (Rap) [FLAC (tracks+.cue)lossle ...
  • (2011) Ассаи / ОМ (Rap) [FLAC (tracks+.cue), lossless]
  • Информация
    Посетители, находящиеся в группе Гости, не могут оставлять комментарии к данной публикации.