вход на сайт

Имя пользователя :
Пароль :

Восстановление пароля Регистрация
(2011) Нигатив (Триада) / Точка Опоры. Черный Том (Rap) [FLAC (tracks+cue)lossless]
Рейтинг:
(голосов: 1)



[img]{THEME}/images/logopost.png[/img]




Исполнитель: Нигатив (Триада)
Альбом: Точка Опоры. Черный Том
Тип альбома: Студийный
Год выпуска: 2011
Жанр:Rap
Формат: FLAC (tracks+cue)
Битрейт: lossless
Продолжительность: 00:55:11


Tреклист:
▼01. Я [00:05:14]
02. Кое-Что [00:04:02]
03. Автоответчик (скит) [00:00:16]
04. Шыворот На Выворот [00:02:57]
05. Письмо [00:05:58]
06. Антон (Скит) (Ft. Булат) [00:06:38]
07. Рэпрезент [00:02:00]
08. Бессоница [00:06:39]
09. Елена [00:06:13]
10. Осень (Ft. Дино) [00:07:49]
11. Олдскул [00:02:57]
12. Факарутолкингэбат (скит) [00:00:50]
13. Измена (Ft. Дино) [00:01:44]
14. Сигарета [00:07:15]
15. Скажи [00:05:58]
16. Призраки [00:06:06]
17. Пусть (Ft. Дино) [00:07:11]
18. На Пороге Храма [00:06:18]
"Отчет EAC:" ▼Exact Audio Copy V1.0 beta 1 from 15. November 2010
EAC extraction logfile from 23. April 2011, 2:43
Нигатив/ Точка Опоры. Черный Том
Used drive: _NECDVD_RW ND-4570A Adapter: 0ID: 0
Read mode : Secure
Utilize accurate stream : Yes
Defeat audio cache: Yes
Make use of C2 pointers : No
Read offset correction: 48
Overread into Lead-In and Lead-Out: No
Fill up missing offset samples with silence : Yes
Delete leading and trailing silent blocks : No
Null samples used in CRC calculations : Yes
Used interface: Installed external ASPI interface
Gap handling: Appended to previous track
Used output format: User Defined Encoder
Selected bitrate: 128 kBit/s
Quality : High
Add ID3 tag : No
Command line compressor : D:Exact Audio Copyflac.exe
Additional command line options : -8 -V -T "ARTIST=%a" -T "TITLE=%t" -T "ALBUM=%g" -T "DATE=%y" -T "TRACKNUMBER=%n" -T "GENRE=%m" -T "COMMENT=EAC FLAC -8" %s
TOC of the extracted CD
Track | Start|Length| Start sector | End sector
---------------------------------------------------------
1|0:00.00 |5:14.52 | 0|23601
2|5:14.52 |4:02.52 | 23602|41803
3|9:17.29 |0:16.30 | 41804|43033
4|9:33.59 |3:01.25 | 43034|56633
7486c7a326b875c9235988a6eee68af6c1a69ea8(2011) Нигатив (Триада) / Точка Опоры. Черный Том (Rap) [FLAC (tracks+cue)lossless] (2011) Нигатив (Триада) / Точка Опоры. Черный Том (Rap) [FLAC (tracks+cue)lossless] " />

Аплоадер: Админ, дата: 13-09-2011, 18:57, торрент скачан: 359 раз

Понравилась раздача? Посмотрите эти:
  • (2009) ONE REPUBLIC / Waking Up (Pop-Rock/Alternative) [FLAC (tracks+.cue) ...
  • (2009) SHAKIRA / She Wolf (US Edition) (Pop) [Flac (tracks+.cue), lossless] ...
  • (2010)Scorpions/Sting In The Tail [FLAC (tracks+cue), lossless]
  • (2010) ПИKНИК / Театр Абсурда (Art-Rock) [FLAC (tracks+.cue), lossless]
  • (2010) Deftones / Diamond Eyes (Nu metal / Alternative) [FLAC, (tracks+ cu ...
  • (2008) Pink / Funhouse (Pop) [FLAC (tracks) lossless]
  • (2010) Начало / Inception (by Hans Zimmer) (Score) [FLAC (tracks+.cue) loss ...
  • (2010) Michael Jackson - Michael (Pop) [FLAC, (tracks+.cue), lossless]
  • (2010) Нюша / Выбирать чудо (Pop) [FLAC(tracks+.cue), lossless]
  • (2011) Red Hot Chili Peppers / Im With You (Alternative Rock/Funk) [FLAC (t ...
  • (2011) B.B. King / Icon (Blues) [FLAC (tracks+.cue), lossless]
  • (2010) Rihanna / Loud (R&B) [FLAC (tracks+.cue), lossless]
  • (2003) DJ Zinc / Faster (DnB, Breaks) [ FLAC (tracks+.cue), lossless]
  • (2011) Nero / Welcome Reality (Dubstep / House / Drum & Bass) [FLAC (tracks ...
  • (2011) Electric Universe / Higher Modes (Psytrance, Full On) [FLAC (tracks+ ...
  • (2011) Evanescence / Evanescence (Alternative Rock) [FLAC (tracks+.cue), lo ...
  • (2011) Ленинград / Хна (Rock) [FLAC (tracks+.cue), lossless]
  • (2012) The Cranberries / Roses (Alternative Rock / Pop-Rock) [FLAC (tracks+ ...
  • (2011) Григорий Лепс / Пенсне (переиздание) (Шансон) [FLAC (tracks+.cue), l ...
  • (2011) Святослав Вакарчук (Океан Эльзы) / Брюссель (Rock/Soft Rock) [FLAC ( ...
  • Информация
    Посетители, находящиеся в группе Гости, не могут оставлять комментарии к данной публикации.