вход на сайт

Имя пользователя :
Пароль :

Восстановление пароля Регистрация
(2011) Капа / Азиат (Рэп) [FLAC (tracks + .cue)lossless]
Рейтинг:
(голосов: 1)



[img]{THEME}/images/logopost.png[/img]



Исполнитель: Капа
Альбом: Азиат
Тип альбома: Студийный
Год выпуска: 2011
Жанр: Рэп
Формат: FLAC (tracks + .cue)
Битрейт: lossless
Log-файл: Присутствует
Продолжительность: 00:44:47

Tреклист:
01. Азиат (Feat. Al Solo) (0:04:12)
02. Город (Feat. DAБО) (0:03:48)
03. Мутная Вода (0:01:13)
04. Я Б Не Лез! (0:03:43)
05. Общак (Feat. Jar Bar, Штыц Мэн, Тихон, Мастер ШЕFF, Купер) (0:04:21)
06. Должен Денег (Feat. DAБО) (0:03:25)
07. Я За Пацанов (Feat. Тисак, DAБО) (0:04:38)
08. Опять Она (Feat. DAБО) (0:03:38)
09. Змеи На Измене (Feat. Мастер ШЕFF, Jar Bar, Купер) (0:03:47)
10. Держи Взгляд (0:00:51)
11. Палево (Feat. Витяй Счастье) (0:03:19)
12. Мысли - Начало Поступков (Feat. Салем) (0:00:24)
13. Мир В Поисках (0:03:33)
14. Боль (Feat. Мастер ШЕFF) (0:03:48)
"Лог создания рипа" ▼Exact Audio Copy V0.99 prebeta 4 from 23. January 2008
Отчёт EAC об извлечении, выполненном 23. апреля 2011, 12:38
Капа / Азиат
Дисковод: HL-DT-STDVD-RW_GSA-H41N Adapter: 0ID: 1
Режим чтения : Достоверность
Использование точного потока : Да
Отключение кэша аудио: Да
Использование указателей C2: Нет
Коррекция смещения при чтении : 667
Способность читать области Lead-in и Lead-out : Нет
Заполнение пропущенных сэмплов тишиной: Да
Удаление блоков с тишиной в начале и конце: Нет
При вычислениях CRC использовались нулевые сэмплы : Да
Интерфейс : Установленный внешний ASPI-интерфейс
Обработка зазоров : Добавлено к предыдущему треку
Выходной формат: Пользовательский кодировщик
Выбранный битрейт: 1024 kBit/s
Качество : Высокий
Добавление ID3-тэга: Нет
Утилита сжатия : C:Program Filesfoobar2000configscodecsflac.exe
Дополнительные параметры : -8 -V -T "ARTIST=%a" -T "TITLE=%t" -T "ALBUM=%g" -T "DATE=%y" -T "TRACKNUMBER=%n" -T "GENRE=%m" -T "COMMENT=EAC FLAC -8" %s
TOC извлечённого CD
Трек | Старт| Длительность | Начальный сектор | Конечный сектор
---------------------------------------------------------------------
1|0:00.00 |4:12.46 | 0|18945
2|4:12.46 |3:48.57 | 18946|36102
3|8:01.28 |1:13.72 | 36103|41649
4|9:15.25 |
71f65d721e9c1013c59dee93de4659bbee997707(2011) Капа / Азиат (Рэп) [FLAC (tracks + .cue)lossless] (2011) Капа / Азиат (Рэп) [FLAC (tracks + .cue)lossless] " />

Аплоадер: Админ, дата: 24-04-2011, 10:48, торрент скачан: 359 раз

Понравилась раздача? Посмотрите эти:
  • (2013) Смоки Мо / Младший (Rap, Hip-Hop) [FLAC (Tracks+.Cue), Lossless]
  • (2013) Баста / Баста 4 (Rap, Hip-Hop) [FLAC (Tracks+.Cue), Lossless]
  • (2013) Loc-Dog & Tony VA / Все знают всё (Rap, Hip-Hop) [FLAC (Tracks+.Cue ...
  • (2011) Schiller / Timeline (Electronic, Lo-Fi, Trance, Ambient, Pop) [FLAC ...
  • (2010) Баста / Баста 3 (Rap) [APE (image+.cue), lossless]
  • (2006) Tokio / puls 200 (Alternative Rock / Pop Rock) [FLAC (image+.cue) lo ...
  • (2010) Krec / Осколки (Rap) [FLAC (tracks+.cue), lossless]
  • (2010) Зануда ака Птаха (Centr) / Папиросы (Rap) [FLAC(track+.cue), lossles ...
  • (2010) ДеЦлЪ / Здесь И Сейчас (Rap) [FLAC(track+.cue), lossless]
  • (2010) Loc-Dog / Паранойя (Rap) [FLAC (track+.cue), lossless]
  • (2011) Slim (Centr) / Отличай Людей (Rap) [FLAC (tracks+.cue)lossless]
  • (2011) Легенды Про / Желтый Дом (Rap) [FLAC (tracks+.cue), Lossless]
  • (2011) CENTR и Легенды Про... / Легенды Про...CENTR (Rap) [FLAC (tracks+.cu ...
  • (2011) ГРОТ / О Пути По Встречной (Rap) [FLAC (tracks+.cue), lossless]
  • (2012) The Rasmus / The Rasmus (Alternative Rock/Melodic Rock) [FLAC (track ...
  • (2012) Guf / Сам И ... (Rap) [FLAC (tracks+.cue), lossless]
  • (2012) Триада / Мои глаза открыты (Rap) [FLAC (tracks+.cue), lossless]
  • (2012) Птаха / Старые тайны (Rap) [FLAC (tracks+.cue), lossless]
  • (2010) Агата Кристи / Эпилог (Rock) [FLAC (tracks+.cue), lossless]
  • (2011) Капа / Азиат (Rap) [Mp3, 320/CBR]
  • (2011) Slim & Konstantah / Азимут (Rap) [ALAC(tracks)lossless]
  • (Дискография, 2004-2011) Капа (Rap) [MP3, 96-320 kbps/CBR]
  • (2011) Смоки МО (Некий Молла) / Время Тигра (Rap) [FLAC (tracks+.cue)lossle ...
  • (2010) 25/17 (Иезекииль 25:17, Ант, Бледный) / Зебра (Rap) [FLAC (tracks+.c ...
  • (2011) Ассаи / ОМ (Rap) [FLAC (tracks+.cue), lossless]
  • Информация
    Посетители, находящиеся в группе Гости, не могут оставлять комментарии к данной публикации.