вход на сайт

Имя пользователя :
Пароль :

Восстановление пароля Регистрация
(2010) Агата Кристи / Эпилог (Rock) [FLAC (tracks+.cue), lossless]
Рейтинг:
(голосов: 1)



[img]{THEME}/images/logopost.png[/img]



Исполнитель: Агата Кристи
Альбом: Эпилог
Тип альбома: Студийный (LP)
Год выпуска: 2010
Жанр: Rock
Формат: FLAC (tracks)
Битрейт: lossless
Продолжительность: 00:46:04

Tреклист:
01.Эпилог 5:25 Вадим Самойлов
02.Письмо 5:17 Глеб Самойлов
03.Небытие 3:42 Вадим Самойлов
04.Подвиг 3:01 Глеб Самойлов
05.Пароль 4:01 Вадим Самойлов
06.В такси 2:52 Глеб Самойлов
07.Алхимик 3:10 Вадим Самойлов
08.Билеты проданы 3:44 Глеб Самойлов
09.Разные люди 3:05 Вадим Самойлов
10.Последнее желание 2:49 Глеб Самойлов
11.Сердцебиение 4:18 Вадим Самойлов
12.Дорога 4:26 Глеб Самойлов

Отчет EAC:
▼Exact Audio Copy V0.99 prebeta 5 from 4. May 2009

Отчёт EAC об извлечении, выполненном 12. июля 2010, 14:59

Agatha Christy / Epilogue

Дисковод: Optiarc DVD+-RW AD-7640A Adapter: 0ID: 0

Режим чтения : Достоверность
Использование точного потока : Да
Отключение кэша аудио: Да
Использование указателей C2: Да

Коррекция смещения при чтении : 48
Способность читать области Lead-in и Lead-out : Нет
Заполнение пропущенных сэмплов тишиной: Да
Удаление блоков с тишиной в начале и конце: Нет
При вычислениях CRC использовались нулевые сэмплы : Да
Интерфейс : Встроенный Win32-интерфейс для Win NT/2000
Обработка зазоров : Добавлено к предыдущему треку

Выходной формат: Пользовательский кодировщик
Выбранный битрейт: 768 kBit/s
Качество : Высокий
Добавление ID3-тэга: Да
Утилита сжатия : C:Program FilesExact Audio CopyFlacflac.exe
Дополнительные параметры : -8 -V -T "ARTIST=%a" -T "TITLE=%t" -T "ALBUM=%g" -T "DATE=%y" -T "TRACKNUMBER=%n" -T "GENRE=%m" -T "COMMENT=EAC FLAC -8" %s

TOC извлечённого CD

Трек | Старт| Длительность | Начальный сектор | Конечный сектор
---------------------------------------------------------------------
1|0:00.00 |5:25.22 | 0|24396
2|5:25.22 |5:17.42 | 24397|48213
3| 10:42.64 |3:42.18 | 48214|64881
4| 14:25.07 |3:01.61 | 64882&n
e0e04461fac41e8378faf82842fb49f74f34e844(2010) Агата Кристи / Эпилог (Rock) [FLAC (tracks+.cue), lossless] (2010) Агата Кристи / Эпилог (Rock) [FLAC (tracks+.cue), lossless] " />

Аплоадер: Админ, дата: 13-07-2010, 22:48, торрент скачан: 359 раз

Понравилась раздача? Посмотрите эти:
  • (2012) Sting / Fifteen Healing Bites (Pop Rock)(Chinese Dragon) [FLAC (trac ...
  • (2013) Linkin Park / Underground XIII (Alternative Rock) [FLAC (tracks+.cue ...
  • (2013) Баста / Баста 4 (Rap, Hip-Hop) [FLAC (Tracks+.Cue), Lossless]
  • (2013) Loc-Dog & Tony VA / Все знают всё (Rap, Hip-Hop) [FLAC (Tracks+.Cue ...
  • (1989) Fausto Papetti / Magic Sax [Vol. 2] (Instrumental) [FLAC (tracks+.cu ...
  • (2012) Рем Дигга / Черника (Rap) [FLAC (tracks+.cue), lossless]
  • (2012) Три Кита (Зануда, Gipsy King, Тато) / Три Кита (Rap) [FLAC (tracks+. ...
  • (2010) Мафик / Ангел (Шансон) [FLAC(image+cue), lossless]
  • (2008) ST / Сто из Ста (Rap) [FLAC(track+.cue), lossless]
  • (2006) Tokio / puls 200 (Alternative Rock / Pop Rock) [FLAC (image+.cue) lo ...
  • (2010) Krec / Осколки (Rap) [FLAC (tracks+.cue), lossless]
  • (2011) Slim (Centr) / Отличай Людей (Rap) [FLAC (tracks+.cue)lossless]
  • (2011) Легенды Про / Желтый Дом (Rap) [FLAC (tracks+.cue), Lossless]
  • (2004) Genesis / Platinum Collection (Art Rock) [FLAC (image+.cue), lossles ...
  • (2011) ГРОТ / О Пути По Встречной (Rap) [FLAC (tracks+.cue), lossless]
  • (2003) Joe Dassin / Grand Collection (Pop/Chanson) [FLAC (tracks+.cue), los ...
  • (2012) The Rasmus / The Rasmus (Alternative Rock/Melodic Rock) [FLAC (track ...
  • (1993) Mireille Mathieu / Chante Piaf (Pop) [FLAC (tracks+.cue), lossless]
  • (2012) Триада / Мои глаза открыты (Rap) [FLAC (tracks+.cue), lossless]
  • (2012) KREC / Молча проще (Rap) [FLAC (tracks+.cue), lossless]
  • (2009) Агата Кристи/ Эпилог (Rock) [MP3, 320/CBR]
  • (2011) Капа / Азиат (Рэп) [FLAC (tracks + .cue)lossless]
  • (2010) 25/17 (Иезекииль 25:17, Ант, Бледный) / Зебра (Rap) [FLAC (tracks+.c ...
  • (2011) Ассаи / ОМ (Rap) [FLAC (tracks+.cue), lossless]
  • (2012) Словетский / Мозайка (Rap) [FLAC (tracks+.cue), lossless]
  • Информация
    Посетители, находящиеся в группе Гости, не могут оставлять комментарии к данной публикации.