вход на сайт

Имя пользователя :
Пароль :

Восстановление пароля Регистрация
( 2001) Воскресение / Звездная коллекция (Rock) [FLAC (image+.cue) lossless]
Рейтинг:
(голосов: 1)



[img]{THEME}/images/logopost.png[/img]



Исполнитель: Воскресение
Альбом: Звездная коллекция
Тип альбома: Студийный
Год выпуска: 2001
Жанр:Rock
Формат:FLAC
Битрейт: lossless
Продолжительность: 01:10:59

Tреклист:
[05:22] 01. Воскресение - По дороге разочарований
[03:50] 02. Воскресение - Один взгляд назад
[04:17] 03. Воскресение - Кто виноват
[06:05] 04. Воскресение - Мой друг художник и поэт
[04:21] 05. Воскресение - Ночная птица
[03:57] 06. Воскресение - Случилось что-то
[03:55] 07. Воскресение - Я сам из тех
[03:34] 08. Воскресение - Все сначала
[03:00] 09. Воскресение - Поезд
[03:05] 10. Воскресение - Лето
[02:56] 11. Воскресение - Так бывает
[05:18] 12. Воскресение - Гимн холостяка
[05:24] 13. Воскресение - Музыкант
[05:50] 14. Воскресение - В жизни, как в темной чаще
[05:10] 15. Воскресение - Зеркало мира
[04:47] 16. Воскресение - В моей душе осадок зла

Отчет EAC:
▼Exact Audio Copy V0.99 prebeta 5 from 4. May 2009

Отчёт EAC об извлечении, выполненном 30. июля 2009, 17:40

Воскресение / Звездная коллекция

Дисковод: Optiarc DVD RW AD-7203S Adapter: 1ID: 0

Режим чтения : Достоверность
Использование точного потока : Да
Отключение кэша аудио: Да
Использование указателей C2: Нет

Коррекция смещения при чтении : 48
Способность читать области Lead-in и Lead-out : Нет
Заполнение пропущенных сэмплов тишиной: Да
Удаление блоков с тишиной в начале и конце: Нет
При вычислениях CRC использовались нулевые сэмплы : Да
Интерфейс : Встроенный Win32-интерфейс для Win NT/2000

Выходной формат : Внутренние WAV-операции
Формат сэмплов: 44.100 Гц; 16 бит; стерео


TOC извлечённого CD

Трек | Старт| Длительность | Начальный сектор | Конечный сектор
---------------------------------------------------------------------
1|0:00.00 |5:22.57 | 0|24206
2|5:22.57 |3:50.03 | 24207|41459
3|9:12.60 |4:17.08 | 41460|60742
4| 13:29.68 |6:05.66 | 60743|88183
5| 19:35.59 |4:21.64 | 88184| 107822
6
1f2d1f8e001402e095f858341e5673c73e1d9257( 2001) Воскресение / Звездная коллекция (Rock) [FLAC (image+.cue) lossless] ( 2001) Воскресение / Звездная коллекция (Rock) [FLAC (image+.cue) lossless] " />

Аплоадер: Админ, дата: 14-03-2010, 09:49, торрент скачан: 359 раз

Понравилась раздача? Посмотрите эти:
  • (2000) Lenny Kravitz / Greatest Hits (Rock, Funk) [FLAC (image+.cue), lossl ...
  • (2002) a-ha / Lifelines (Alternative Rock, Synth-pop ) [FLAC (image + .cue ...
  • (2009) Воскресение / The Best (Rock ) [APE (image + .cue), lossless]
  • Тайна смерти. Мытарства. Воскресение. (Олег Стеняев, видеолекция, фильм пра ...
  • (1996-2005, Сборник) VA / Легенды русского рока [57 CD box set] (Русский р ...
  • (2006) Батырхан Шукенов/ Отан Ана (Pop) [FLAC (image+.cue) lossless]
  • (2001, сборник) VA / Легенды русского рока - The Best (Rock) [APE (image+.с ...
  • (2011) Blues Cousins / KGB Blues (Blues Rock) [FLAC (image+.cue), lossless] ...
  • [Ислам] Коран Сура 75 Аль-Кийама (Воскресение), Чтец Насер Аль Катами [HD 7 ...
  • (1979-2005) Воскресение- Сборник лучших песен (Русский рок) [MP3 320Кбит/с ...
  • Машина Времени & Воскресение / 50 лет на двоих (2001)
  • Машина времени и Воскресение / Музыка ручной работы (2006)
  • (2009) Воскресение / The Best (Золотая коллекция Союз Gold) (Русский рок) ...
  • (2003) Воскресение / Не Торопясь... (Русский Рок) [MP3, 192 kbps /CBR]
  • (2004) Андрей Сапунов / Старый звонарь (Rock) [WAVPack (image+.cue), lossle ...
  • (2009) Воскресение / Лучшее (2CD) (Rock) [FLAC (image+.cue), lossless]
  • (Дискография 1979-2004) Воскресенье (Русский рок) [MP3 128-320/CBR]
  • (2000) Парк Горького (Gorky Park) / The Best (Glam Metal/Hard Rock) [FLAC ...
  • (2004) Ex-Сектор Газа / Огненный рай (Punk-Rock) [FLAC (image+.cue), lossle ...
  • (2008) Студия 80 / Придуманный Мир (Pop) [FLAC (image+.cue), lossless]
  • Информация
    Посетители, находящиеся в группе Гости, не могут оставлять комментарии к данной публикации.