вход на сайт

Имя пользователя :
Пароль :

Восстановление пароля Регистрация
(1993) Крис Кельми / Greatest Hits (Pop-Rock) [FLAC (image+.cue), lossless]
Рейтинг:
(голосов: 1)



[img]{THEME}/images/logopost.png[/img]




Исполнитель:Крис Кельми
Страна: Россия
Альбом:Greatest Hits
Тип альбома:Compilation
Год выпуска:1993
Жанр:Pop-Rock
Год первоначального издания альбома: 1993
Страна (Издатель, Каталожный номер): Россия (Jeff Records, SS93027)
Аудиокодек: FLAC (*.flac)
Тип рипа: image+.cue
Битрейт: lossless
Продолжительность: 01:11:11

Wikipedia|YouTube|Official page


Tреклист:
01. Ночное рандеву - 04:35
02. Усталое такси - 04:05
03. Козырная дама - 04:07
04. Леди Блюз - 04:25
05. Люди и птицы - 03:11
06. Дед Мороз - 03:26
07. Если метель - 04:25
08. Эй, парень - 03:29
09. Мой демон - 05:12
10. Как всегда - 04:31
11. Слушай ночь - 05:42
12. Серебряный коктейль - 04:26
13. Две свечи на ветру - 04:53
14. Распахни окно - 03:57
15. Взлет - 05:36
16. Замыкая круг - 05:05

Лог создания рипа ▼TextExact Audio Copy V1.0 beta 2 from 29. April 2011

EAC extraction logfile from 11. September 2011, 2:33

Крис Кельми / Greatest Hits

Used drive : PIONEER DVD-RW DVR-212 Adapter: 8 ID: 0

Read mode : Secure
Utilize accurate stream : Yes
Defeat audio cache : Yes
Make use of C2 pointers : No

Read offset correction : 48
Overread into Lead-In and Lead-Out : No
Fill up missing offset samples with silence : Yes
Delete leading and trailing silent blocks : No
Null samples used in CRC calculations : Yes
Used interface : Installed external ASPI interface

Used output format : Internal WAV Routines
Sample format : 44.100 Hz; 16 Bit; Stereo

TOC of the extracted CD

Track | Start | Length | Start sector | End sector
---------------------------------------------------------
1 | 0:00.20 | 4:35.25 | 20 | 20669
2 | 4:35.45 | 4:05.10 | 20670 | 39054
3 | 8:40.55 | 4:07.27 | 39055 | 57606
4 | 12:48.07 | 4:25.50 | 57607 | 77531
5 | 17:13.57 | 3:11.10 | 77532 | 91866
6 | 20:24.67 | 3:26.20 | 91867 | 107336
7 | 23:51.12 | 4:25.10 | 107337 | 127221
8 | 28:16.22 | 3:29.00 | 127222 | 142896
9 | 31:45.22 | 5:12.45 | 142897 | 166341
10 | 36:57.67 | 4:31.28 | 166342 | 186694
11 | 41:29.20 | 5:42.05 | 186695 | 212349
12 | 47:11.25 | 4:26.15 | 212350 | 232314
13 | 51:37.40 | 4:53.42 | 232315 | 254331
14 | 56:31.07 | 3:57.53 | 254332 | 272159
15 | 60:28.60 | 5:36.50 | 272160 | 297409
16 | 66:
0b4f5e615ba3aa0af5ce0fd40fc68e986db81de7(1993) Крис Кельми / Greatest Hits (Pop-Rock) [FLAC (image+.cue), lossless] (1993) Крис Кельми / Greatest Hits (Pop-Rock) [FLAC (image+.cue), lossless] " />

Аплоадер: Админ, дата: 11-12-2012, 20:44, торрент скачан: 359 раз

Понравилась раздача? Посмотрите эти:
  • (1993) Mick Jagger / Wandring Spirit (Rock) [FLAC(image+.cue), lossless]
  • (1996) George Michael / Older (1st Press Japan) (Electronic, Pop/Rock) [FLA ...
  • (2013) Мумий Тролль / SOS Матросу - 2013, (Rock) [FLAC (image+.cue), lossle ...
  • (1997) Моральный кодекс / Я выбираю тебя (подарочное издание 2007) (Pop-Roc ...
  • (2014) Ozzy Osbourne / Dreamer (Hard Rock, Heavy Metal, Power Ballad) [FLAC ...
  • (2009) Ozzy Osbourne / Greatest Hits (2CD) (Heavy Metal, Hard Rock) [FLAC ( ...
  • (2010) Schiller / Greatest Hits (2 CD) (Electronic,Downtempo, Trance, Ambi ...
  • (Jazz) LOUIS ARMSTRONG — Louis Armstrongs All Time Greatest Hits — 2003, F ...
  • (1991) James Brown - 20 All-Time Greatest Hits![FLAC (tracks+.cue) lossless ...
  • (2010) Ассаи / Лифт (Rap) [FLAC(image+.cue), lossless]
  • (2008) Юрий Наумов / Рок как будто Блюз (Blues) [FLAC (Image+.cue), lossles ...
  • (2011, сборник) ATB / Greatest Hits (Trance) [FLAC (tracks+.сue), lossless] ...
  • (2009) D-Man 55 / 7.62 Б-30 (Rap) [FLAC (image+.cue) lossless]
  • (1996) DJ Dado / The Album (Electronic, Dream trance) [FLAC (image+.сue), l ...
  • (2010) 2Pac / Greatest Hits (Rap & Hip Hop) [APE (image+.cue), lossless]
  • (2012) Сергей Васюта и Сладкий Сон / На белом покрывале января... (Pop) [Fl ...
  • (2004) Игорь Малинин / От Штирлица до Путина (Pop) [FLAC (image+.cue), los ...
  • (1993) Coverdale & Page / Coverdale & Page (2011 Sony Music Japan, Blu-Spec ...
  • (2012) Jim Brickman / Love (2010) (Piano, Instrumental, New Age) [FLAC (ima ...
  • (2012) Dan Balan / All The Hits (Orange Exclusiv) (Pop, Dance) [FLAC (image ...
  • (2011) Yanni / Truth Of Touch (New Age) [FLAC (image+ .cue),lossless]
  • (2011) Стас Михайлов / Только ты (Шансон) [Flac(image+.cue)Lossless]
  • (2011) Metallica / Beyond Magnetic (Thrash Metal) [FLAC (image+.cue), lossl ...
  • (2011) Yellowcard / Greatest Hits (Japan Edition) (Punk) [FLAC (image+.cue) ...
  • (2011) Lou Reed & Metallica / Lulu (Heavy Metal, Hard Rock) [FLAC (image+.c ...
  • Информация
    Посетители, находящиеся в группе Гости, не могут оставлять комментарии к данной публикации.