вход на сайт

Имя пользователя :
Пароль :

Восстановление пароля Регистрация
(Дискография, 2006-2010) Unreal (Cyber Gothic/Industrial) [ALAC (M4A), Apple Lossless]
Рейтинг:
(голосов: 1)



[img]{THEME}/images/logopost.png[/img]




Дискография
Страна: Россия
Жанр: Cyber Gothic/Industrial
Тексты: вшиты
Обложки: вшиты
Формат: ALAC (tracks)
Битрейт: lossless
Продолжительность: 03:08:16

О группе: Группа существует с 2006-го года, базируется в Москве. Unreal - это название было выбрано не случайно. Всё, что нереально, всё то, чего не встретить и не найти в нашем мире - вот темы, которые интересны коллективу. Сценический состав Unreal это четыре человека: Arashi, Mistery, Violencer, Wonder. Общее руководство группой и продюсирование осуществляет пятый участник Futurist. Каждый трек Unreal - полноценный рассказ, со своим индивидуальным миром и настроением. Придерживаясь традиционных канонов Dark Scene - жёсткого, но мелодичного современного саунда, группа, всё же, старается не ограничивать себя каким-либо определённым направлением. Трагическая готика, мелодичный Dark-electro, мощный Industrial, и даже элементы Sympho-black сливаются в музыке Unreal, чтобы придать песням группы незабываемое звучание, соответствующее каждой композиции в отдельности.
Дополнительная информация:
Является копией раздачи

Офицальный сайт группы: Ссылка

Группа ВКонтакте: Ссылка

Студийные:
2008 - Не в этом мире ▼

Продолжительность: 01:33:37

Tреклист:
CD 1
01 Прекрасный Новый Мир[01:23]
02 Мы Боги[04:56]
03 Сверхмашина[04:37]
04 Newtype[07:13]
05 Цепи[04:01]
06 Тьма[05:48]
07 Лёд[03:53]
08 Проклятье Мёртвых Роз[07:03]
09 Ритуал[03:29]
10 Инферно - Скитания Души. Часть 1[07:16]
11 Чистилище - Скитания Души. Часть 2[04:39]

Лог создания рипа ▼Exact Audio Copy V0.99 prebeta 5 from 4. May 2009

Отчёт EAC об извлечении, выполненном 20. октября 2009, 21:37

Unreal / Не в этом мире(CD1)

Дисковод: Optiarc DVD RW AD-7203S Adapter: 0 ID: 1

Режим чтения : Достоверность
Использование точного потока : Да
Отключение кэша аудио : Да
Использование указателей C2 : Нет

Коррекция смещения при чтении : 48
Способность читать области Lead-in и Lead-out : Нет
Заполнение пропущенных сэмплов тишиной : Да
Удаление блоков с тишиной в начале и конце : Нет
При вычислениях CRC использовались нулевые сэмплы : Да
Интерфейс : Встроенный Win32-интерфейс для Win NT/2000

Выходной формат : Внутренние WAV-операции
Формат сэмплов : 44.100 Гц; 16 бит; стерео

TOC извлечённого CD

Трек | Старт | Длительность | Начальный сектор | Конечный сектор
---------------------------------------------------------------------
1 | 0:00.00 | 1:23.69 | 0 | 6293
2 | 1:23.69 | 4:56.12 | 6294 | 28505
3 | 6:20.06 | 4:37.43 | 28506 | 49323
4 | 10:57.49 | 7:13.15 | 49324 | 81813
5 | 18:10.64 | 4:01.24 | 81814 | 99912
6 | 22:12.13 | 5:48.36 | 99913 | 126048
7 | 28:00.49 | 3:53.73 | 126049 | 143596
8 | 31:54.47 | 7:03.25 | 143597 | 175346
9 | 38:57.72 | 3:29.28 | 175347 | 191049
10 | 42:27.25 | 7:16.36 | 191050 | 223785
11 | 49:43.61 | 4:39.57 | 223786 | 244767

Характеристики диапазона извлечения и сообщения об ошибках

Выбранный диапазон

Имя файла C:Documents and Settings1Рабочий столUnreal - Не в этом мире(коллекционное издание)Unreal - Не в этом мире(CD1).wav

Пиковый уровень 98.9 %
Качество диапазона 100.0 %
CRC копии 57084DF0
Копирование... OK

Ошибок не произошло
Конец отчёта
CD 2
01 Адреналин[03:11]
02 Эстетика Агонии[06:19]
03 Эстетика Агонии (Alternative Version)[04:27]
04 Лёд (Unedit Version)[03:36]
05 Три Ночи (Main Version)[03:46]
06 Три Ночи (Sympho Version)[03:46]
07 Три Ночи (Hard Version)[03:46]
08 Три Ночи (Demo)[03:46]
09 Три Ночи (Karaoke)[03:46]
10 Три Ночи (Dance Mix)[02:48]

Лог создания рипа ▼Exact Audio Copy V0.99 prebeta 5 from 4. May 2009

Отчёт EAC об извлечении, выполненном 20. октября 2009, 21:53

Unreal / Не в этом мире(CD2)

Дисковод: Optiarc DVD RW AD-7203S Adapter: 0 ID: 1

Режим чтения : Достоверность
Использование точного потока : Да
Отключение кэша аудио : Да
Использование указателе
7b86d1b6ed71908ce0f0224629fc19d97c595fbf(Дискография, 2006-2010) Unreal (Cyber Gothic/Industrial) [ALAC (M4A), Apple Lossless] (Дискография, 2006-2010) Unreal (Cyber Gothic/Industrial) [ALAC (M4A), Apple Lossless] " />

Аплоадер: Админ, дата: 21-02-2012, 15:22, торрент скачан: 359 раз

Понравилась раздача? Посмотрите эти:
  • (Дискография, 2006-2012) Unreal (Cyber Gothic, Electronic, Industrial) [MP3 ...
  • (2006)R-Tem - Voiceless Гимн Казантипа (Progressive House) [APE (image + cu ...
  • (дискография, 1983-2008) MADONNA (pop / dance) [WavPack (image+.cue) lossle ...
  • (2009) НОЧНЫЕ СНАЙПЕРЫ — Южный полюс (русский рок, сингл) [FLAC (lossless), ...
  • (2009) MYLENE FARMER №5 On Tour (Live) (EuroPop) [ALAC(tracks), lossless] ...
  • (2002) Dschinghis Khan / Star Collection (2CD) (Disco) [APE (image+.cue), l ...
  • (2010) ST1M / Октябрь (Rap) [APE(image+.cue), lossless]
  • (2006) Батырхан Шукенов/ Отан Ана (Pop) [FLAC (image+.cue) lossless]
  • (2011) Легенды Про / Желтый Дом (Rap) [FLAC (tracks+.cue), Lossless]
  • (2011) Within Temptation / The Unforgiving (Symphonic Gothic Metal) [FLAC ( ...
  • (2011) АлисА / 20.12 (Русский Рок) [WavPack (image+.cue), lossless]
  • (2011) Blues Cousins / KGB Blues (Blues Rock) [FLAC (image+.cue), lossless] ...
  • (2011) АукцЫон / Юла (Rock) [APE (image+.cue), lossless]
  • (Дискография, 1986 - 1999) Crimson Glory (Progressive Heavy Metal) [FLAC (i ...
  • (2003) THE BLACK EYED PEAS / Elephunk (RnB) [Ape (image+.cue), lossless]
  • (2009) Rihanna / Rated R (R`n`B) [APE (image+.cue)]
  • ( 2001) Воскресение / Звездная коллекция (Rock) [FLAC (image+.cue) lossless ...
  • (2009) Челси / Точка возврата (Pop) [APE (image+.cue), lossless]
  • (2011) Slim & Konstantah / Азимут (Rap) [ALAC(tracks)lossless]
  • (2006) Би-2 / Лучшие песни (Rock) [FLAC (image+.cue), lossless]
  • (2011) N1NT3NDO / N1NT3NDO (Rap) [APE (image+.сue), lossless]
  • (2012) Paradise Lost / Tragic Idol (Limited Edition) (Gothic Rock, Metal) [ ...
  • (2011) Paradise Lost / Draconian Times MMXI (Limited Edition) (Gothic Rock, ...
  • (2000) Парк Горького (Gorky Park) / The Best (Glam Metal/Hard Rock) [FLAC ...
  • (2008) Студия 80 / Придуманный Мир (Pop) [FLAC (image+.cue), lossless]
  • Информация
    Посетители, находящиеся в группе Гости, не могут оставлять комментарии к данной публикации.