вход на сайт

Имя пользователя :
Пароль :

Восстановление пароля Регистрация
(2005) плюм-Бум / Чистая правда (Funk, Reggae, Pop-Punk) [APE(image+.cue), lossless]
Рейтинг:
(голосов: 1)



[img]{THEME}/images/logopost.png[/img]



Исполнитель: плюм-Бум
Альбом: Чистая правда
Страна: Россия
Тип альбома: Студийный
Год выпуска: 2005
Жанр: Funk, Reggae, Pop-Punk
Издатель (лейбл): RDM
Номер по каталогу: 0507546
Формат: APE (image+.сue)
Битрейт: lossless
Продолжительность: 00:53:17

Tреклист:
1. Чай (04:06)
2. Южная ночь (05:51)
3. Скоро Осень (05:04)
4. Амстердам (05:17)
5. Дальние (05:38)
6. Жираф (02:51)
7. Рыбалка (04:20)
8. Против я (04:28)
9. Сон (04:17)
10.Музыка (04:13)
11.Чистая правда (03:56)
12.Девочка (03:16)

Лог создания рипа ▼TextExact Audio Copy V0.99 prebeta 5 from 4. May 2009

Отчёт EAC об извлечении, выполненном 7. ноября 2010, 14:02

плюм-Бум / Чистая правда

Дисковод: HL-DT-STDVDRAM GE20NU10 Adapter: 3 ID: 0

Режим чтения : Достоверность
Использование точного потока : Да
Отключение кэша аудио : Да
Использование указателей C2 : Нет

Коррекция смещения при чтении : 667
Способность читать области Lead-in и Lead-out : Нет
Заполнение пропущенных сэмплов тишиной : Да
Удаление блоков с тишиной в начале и конце : Нет
При вычислениях CRC использовались нулевые сэмплы : Да
Интерфейс : Встроенный Win32-интерфейс для Win NT/2000

Выходной формат : Внутренние WAV-операции
Формат сэмплов : 44.100 Гц; 16 бит; стерео


TOC извлечённого CD

Трек | Старт | Длительность | Начальный сектор | Конечный сектор
---------------------------------------------------------------------
1 | 0:00.00 | 4:06.29 | 0 | 18478
2 | 4:06.29 | 5:51.45 | 18479 | 44848
3 | 9:57.74 | 5:03.21 | 44849 | 67594
4 | 15:01.20 | 5:16.62 | 67595 | 91356
5 | 20:18.07 | 5:38.39 | 91357 | 116745
6 | 25:56.46 | 2:50.61 | 116746 | 129556
7 | 28:47.32 | 4:20.37 | 129557 | 149093
8 | 33:07.69 | 4:27.60 | 149094 | 169178
9 | 37:35.54 | 4:16.35 | 169179 | 188413
10 | 41:52.14 | 4:13.44 | 188414 | 207432
11 | 46:05.58 | 3:55.17 | 207433 | 225074
12 | 50:01.00 | 3:
16968279f7a39d3e66bf15a4c0e8df656e9014a8(2005) плюм-Бум / Чистая правда (Funk, Reggae, Pop-Punk) [APE(image+.cue), lossless] (2005) плюм-Бум / Чистая правда (Funk, Reggae, Pop-Punk) [APE(image+.cue), lossless] " />

Аплоадер: Админ, дата: 6-11-2011, 09:55, торрент скачан: 359 раз

Понравилась раздача? Посмотрите эти:
  • (2000) Lenny Kravitz / Greatest Hits (Rock, Funk) [FLAC (image+.cue), lossl ...
  • (2002) a-ha / Lifelines (Alternative Rock, Synth-pop ) [FLAC (image + .cue ...
  • (2012) Григорий Лепс / Полный вперёд (Шансон) [FLAC (image+.cue), Lossless ...
  • (дискография, 1983-2008) MADONNA (pop / dance) [WavPack (image+.cue) lossle ...
  • (2000) Tic Tac Toe / Ist der Ruf erst ruiniert... (Rap,Hip-hop) [Lossless, ...
  • (2008) НоГГано / Первый (Rap) [APE(image+cue), lossless]
  • (2007) Morandi / N3xt (Pop) [APE, (image + .cue), lossless]
  • (2010) ST1M / Октябрь (Rap) [APE(image+.cue), lossless]
  • (2006) Батырхан Шукенов/ Отан Ана (Pop) [FLAC (image+.cue) lossless]
  • (2010) ДиДюЛя / Аромат (flamenco, instrumental, folk) [APE (image + .cue), ...
  • (1985) BABYS GANG / Challenger (Pop,Italo Disco) [APE(image+.cue)lossless] ...
  • (2011) Blues Cousins / KGB Blues (Blues Rock) [FLAC (image+.cue), lossless] ...
  • (2011) АукцЫон / Юла (Rock) [APE (image+.cue), lossless]
  • (2003) THE BLACK EYED PEAS / Elephunk (RnB) [Ape (image+.cue), lossless]
  • (2009) Rihanna / Rated R (R`n`B) [APE (image+.cue)]
  • (1993) Любовь Успенская / Любимый (шансон) [APE (image+.cue), lossless]
  • (2009) Челси / Точка возврата (Pop) [APE (image+.cue), lossless]
  • (2009) Плюм-Бум / Март и Небо (Reggae, Funk, Ska) [MP3, 320 kbps/CBR]
  • (2011) N1NT3NDO / N1NT3NDO (Rap) [APE (image+.сue), lossless]
  • (Дискография, 2005-2008) Ёлка (R&B, Reggae, Pop) [APE (image+.cue); FLAC (i ...
  • (2009) Kamazz (3NT) / Завязал (Hip-Hop) [APE (image+.cue) lossless]
  • (1995) Yaki-Da / Pride (Pop, Eurodance) [FLAC (image+.сue), lossless]
  • (2011) КняZz / Письмо из Трансильвании (Punk-Rock) [APE (image+.сue), lossl ...
  • (2004) Ex-Сектор Газа / Огненный рай (Punk-Rock) [FLAC (image+.cue), lossle ...
  • (2008) Студия 80 / Придуманный Мир (Pop) [FLAC (image+.cue), lossless]
  • Информация
    Посетители, находящиеся в группе Гости, не могут оставлять комментарии к данной публикации.