вход на сайт

Имя пользователя :
Пароль :

Восстановление пароля Регистрация
(2010) Виктор Зинчук / Кельтский альбом (Rock) [FLAC (image+.cue), lossless]
Рейтинг:
(голосов: 1)



[img]{THEME}/images/logopost.png[/img]



Исполнитель: Виктор Зинчук
Альбом: Кельтский альбом
Страна: Россия
Тип альбома: Студийный
Год выпуска: 2010
Жанр: Rock
Формат: FLAC (image+.cue)
Битрейт: lossless
Log-файл: присутствует
Продолжительность: 00:46:55

Tреклист:
01 Ирландская полечка - OSullivans Fancy(05:20)
02 Интродукция (Ленивая Мэгги) - Intro (Drowsy Maggie)(03:33)
03 Принцесса - Princess(04:06)
04 Дорогая просыпается - My Darling Asleep(03:18)
05 Москва-Дублин - Moscow-Dublin(02:34)
06 Отец Флин (Пчелы в вереске) - Father OFlynn (The Bees In The Heather)(04:18)
07 Сон Кэролана - OCarolans Dream(07:14)
08 Утренняя жига - The Morning Jig(02:50)
09 10 пенсов - 10 Pens(03:00)
10 Кольца Брендена - Brendan Rings(04:47)
11 Джордж Брабазон - George Brabazon (Second Air)(03:11)
12 Веселье в виски (Вечер) - The Humours Of Whiskey (The Evening)(03:04)

Лог создания рипа ▼TextExact Audio Copy V1.0 beta 1 from 15. November 2010

EAC extraction logfile from 1. February 2011, 22:13

Виктор Зинчук / Кельтский альбом

Used drive : Optiarc DVD RW AD-5240S Adapter: 1 ID: 0

Read mode : Secure
Utilize accurate stream : Yes
Defeat audio cache : Yes
Make use of C2 pointers : No

Read offset correction : 48
Overread into Lead-In and Lead-Out : No
Fill up missing offset samples with silence : Yes
Delete leading and trailing silent blocks : No
Null samples used in CRC calculations : Yes
Used interface : Native Win32 interface for Win NT & 2000

Used output format : Internal WAV Routines
Sample format : 44.100 Hz; 16 Bit; Stereo


TOC of the extracted CD

Track | Start | Length | Start sector | End sector
---------------------------------------------------------
1 | 0:00.00 | 5:20.02 | 0 | 24001
2 | 5:20.02 | 3:33.09 | 24002 | 39985
3 | 8:53.11 | 4:06.05 | 39986 | 58440
4 | 12:59.16 | 3:18.08 | 58441 | 73298
5 | 16:17.24 | 2:34.02 | 73299 | 84850
6 | 18:51.26 | 4:17.72 | 84851 | 104197
7 | 23:09.23 | 7:14.23 | 104198 | 136770
8 | 30:23.46 | 2:49.74 | 136771 | 149519
9 | 33:13.45 | 2:59.73 | 149520 | 163017
10 | 36:13.43 | 4:26.72 | 163018 | 183039
11 | 40:40.40 | 3:11.00 | 183040 | 197364
12 | 43:51.40 | 3:04.05 | 197365 | 211169


Range status and errors

Selected range

Filename D:...Виктор Зинчук - Кельтский альбом.wav

Copy aborted

End of status report
&
810e2ba73b622a6172db57b5e61fcc7eec93589d(2010) Виктор Зинчук / Кельтский альбом (Rock) [FLAC (image+.cue), lossless] (2010) Виктор Зинчук / Кельтский альбом (Rock) [FLAC (image+.cue), lossless] " />

Аплоадер: Админ, дата: 11-10-2011, 19:09, торрент скачан: 359 раз

Понравилась раздача? Посмотрите эти:
  • (2013) Мумий Тролль / SOS Матросу - 2013, (Rock) [FLAC (image+.cue), lossle ...
  • (2006) БумеR (Бумер) / Второй альбом (Шансон) [FLAC (image+.cue)]
  • (1989) Kaoma / Lambada (lambada / latin / ethnic) [FLAC (image+.cue), lossl ...
  • (2010) Ассаи / Лифт (Rap) [FLAC(image+.cue), lossless]
  • (2011) Mylene Farmer/ Bleu Noir (CDS + CDM) (Pop) [APE (image+.cue) lossles ...
  • (2011, 5CD Box set) Boney M / Original Album Classics (Reggae, Disco, R&B, ...
  • (2011 15CD Box Set Digitally Remaster) Rush - Sectors (Rock, Progressive R ...
  • (2011) Yanni / Truth Of Touch (New Age) [FLAC (image+ .cue),lossless]
  • (2011) Linkin Park / Iridescent (Alternative Rock) [FLAC(image+.cue), lossl ...
  • (2011) JORN / Live In Black (Heavy/Progressive Metal ) [FLAC (image+.cue), ...
  • (2011) Rammstein / Mein Land (Neue Deutsche Harte, Industrial, Tanz-Metal) ...
  • (2011) Adriano Celentano / Facciamo Finta Che Sia Vero (POP) [FLAC (image+. ...
  • (2011) Сурганова & Оркестр / Увидимся скоро (Rock) [FLAC (image+.cue), loss ...
  • (2011) Metallica / Beyond Magnetic (Thrash Metal) [FLAC (image+.cue), lossl ...
  • (2012) Adrenaline Mob / Omerta (Heavy Metal/Progressive/Nu-Metal) [FLAC (im ...
  • (2012) Crippled Black Phoenix / (Mankind) The Crafty Ape (Alternative/Indie ...
  • (2012) Fox / 2012 (Melodic Hard Rock) [FLAC (image +.cue), lossless]
  • (2010) Татьяна Буланова / Романсы (Pop) [FLAC (image+.cue), lossless]
  • (2012) Game Over / For Humanity (Thrash Metal) [FLAC (image+.cue), lossless ...
  • (2011) Lou Reed & Metallica / Lulu (Heavy Metal, Hard Rock) [FLAC (image+.c ...
  • Информация
    Посетители, находящиеся в группе Гости, не могут оставлять комментарии к данной публикации.