вход на сайт

Имя пользователя :
Пароль :

Восстановление пароля Регистрация
(2011) АлисА / 20.12 (Русский Рок) [WavPack (image+.cue), lossless]
Рейтинг:
(голосов: 1)



[img]{THEME}/images/logopost.png[/img]



Исполнитель: АлисА
Альбом: 20.12
Тип альбома: Студийный
Год выпуска: 2011
Жанр: Rock
Формат: WAVPack (image+.cue)
Битрейт: lossless
Продолжительность: 50:32

Tреклист:
01. Арифметика (03:00)
02. Шейк (05:07)
03. Руны (05:09)
04. 20.12 (03:55)
05. Война (06:01)
06. Прыть (04:00)
07. Капля Солнца (04:17)
08. Качели (05:45)
09. Пульс (03:39)
10. Вода и Вино (04:17)
11. Мир (05:17)

Обложки и сканы буклетов присутствуют.

"Отчет EAC" ▼TextExact Audio Copy V0.99 prebeta 5 from 4. May 2009
Отчёт EAC об извлечении, выполненном 25. сентября 2011, 15:16
АлисА / 20.12
Дисковод: ASUS DRW-1814BL Adapter: 0 ID: 0
Режим чтения : Достоверность
Использование точного потока : Да
Отключение кэша аудио : Да
Использование указателей C2 : Нет
Коррекция смещения при чтении : 6
Способность читать области Lead-in и Lead-out : Нет
Заполнение пропущенных сэмплов тишиной : Да
Удаление блоков с тишиной в начале и конце : Нет
При вычислениях CRC использовались нулевые сэмплы : Да
Интерфейс : Встроенный Win32-интерфейс для Win NT/2000
Выходной формат : Внутренние WAV-операции
Формат сэмплов : 44.100 Гц; 16 бит; стерео
TOC извлечённого CD
Трек | Старт | Длительность | Начальный сектор | Конечный сектор
---------------------------------------------------------------------
1 | 0:00.00 | 3:00.08 | 0 | 13507
2 | 3:00.08 | 5:07.06 | 13508 | 36538
3 | 8:07.14 | 5:09.44 | 36539 | 59757
4 | 13:16.58 | 3:55.15 | 59758 | 77397
5 | 17:11.73 | 6:01.44 | 77398 | 104516
6 | 23:13.42 | 4:00.38 | 104517 | 122554
7 | 27:14.05 | 4:17.58 | 122555 | 141887
8 | 31:31.63 | 5:45.59 | 141888 | 167821
9 | 37:17.47 | 3:39.56 | 167822 | 184302
10 | 40:57.28 | 4:17.25 | 184303 | 203602
11 | 45:14.53 | 5:17.35 | 203603 | 227412
Характеристики диапазона извлечения и сообщения об ошибках
Выбранный диапазон
Имя файла G:ley-barmaleylossless-galaxy.ruАлисА - 20.12.wav
Пиковый уровень 99.0 %
Качество диапазона 100.0 %
CRC теста 003A9AF2
CRC копии 003A9AF2
Копирование... OK
Ошибок не произошло
AccurateRip: сводка
Трек 1 нет в
7753c3fba1645b740aacfdb29e1103dddebf562e(2011) АлисА / 20.12 (Русский Рок) [WavPack (image+.cue), lossless] (2011) АлисА / 20.12 (Русский Рок) [WavPack (image+.cue), lossless] " />

Аплоадер: Админ, дата: 30-09-2011, 14:23, торрент скачан: 359 раз

Понравилась раздача? Посмотрите эти:
  • (1989, 1991, 1992, 1993) Nirvana — 4 альбома (Grunge) [WavPack (image+.cue) ...
  • (2006)R-Tem - Voiceless Гимн Казантипа (Progressive House) [APE (image + cu ...
  • (дискография, 1983-2008) MADONNA (pop / dance) [WavPack (image+.cue) lossle ...
  • (2009) НОЧНЫЕ СНАЙПЕРЫ — Южный полюс (русский рок, сингл) [FLAC (lossless), ...
  • (2009) НОЧНЫЕ СНАЙПЕРЫ — Живаго в Лужниках (русский рок) [WAVPack (lossless ...
  • (2000) Tic Tac Toe / Ist der Ruf erst ruiniert... (Rap,Hip-hop) [Lossless, ...
  • (2006) Батырхан Шукенов/ Отан Ана (Pop) [FLAC (image+.cue) lossless]
  • (2010) ДиДюЛя / Аромат (flamenco, instrumental, folk) [APE (image + .cue), ...
  • (1985) BABYS GANG / Challenger (Pop,Italo Disco) [APE(image+.cue)lossless] ...
  • (2011) Within Temptation / The Unforgiving (Symphonic Gothic Metal) [FLAC ( ...
  • (2011) Blues Cousins / KGB Blues (Blues Rock) [FLAC (image+.cue), lossless] ...
  • (2011) АукцЫон / Юла (Rock) [APE (image+.cue), lossless]
  • (Дискография, 1986 - 1999) Crimson Glory (Progressive Heavy Metal) [FLAC (i ...
  • (2003) THE BLACK EYED PEAS / Elephunk (RnB) [Ape (image+.cue), lossless]
  • (2010, сборник) RАЙ / Black Star party (Пашу - 27!) promo mix by DJ Miller ...
  • (2009) Земфира / Z-Sides (Rock) [FLAC(image+.cue), lossless ]
  • (2006) Би-2 / Лучшие песни (Rock) [FLAC (image+.cue), lossless]
  • (2011) N1NT3NDO / N1NT3NDO (Rap) [APE (image+.сue), lossless]
  • (1995) Юрий Шатунов / Ты помнишь... (Pop) [FLAC(image+.cue), lossless]
  • (2008) Студия 80 / Придуманный Мир (Pop) [FLAC (image+.cue), lossless]
  • Информация
    Посетители, находящиеся в группе Гости, не могут оставлять комментарии к данной публикации.