вход на сайт

Имя пользователя :
Пароль :

Восстановление пароля Регистрация
(2011) Вася Обломов / Повести и Рассказы (Стёб-Хоп Шансон) [WavPack (image+.cue), lossless]
Рейтинг:
(голосов: 1)



[img]{THEME}/images/logopost.png[/img]



Исполнитель: Вася Обломов
Альбом: Повести и Рассказы
Тип альбома: Студийный
Год выпуска: 2011
Жанр:Стёб-Хоп Шансон
Формат: WAVPack (image+.cue)
Битрейт: lossless
Продолжительность: 00:46:23

Tреклист:
01. C Чего Начинается Родина (2:56)
02. Кто Хочет Стать Милиционером? (4:52)
03. Магадан (Tv Version) (4:33)
04. Одноклассники (3:21)
05. Между Небом И Землей (Feat. Торба-На-Круче) (2:54)
06. Уг (3:30)
07. Ритмы Окон (Feat. Паша Чехов) (3:29)
08. Письмо Счастья (4:11)
09. Думай О Хорошем (2:51)
10. Начальник (2:53)
11. От Души (Feat. Ленинград) (3:27)
12. Роме Пришла Повестка (2:51)
13. Магадан (Original Version) (4:35)

"Отчет EAC" ▼TextExact Audio Copy V1.0 beta 2 from 29. April 2011

EAC extraction logfile from 1. July 2011, 0:06

Вася Обломов / Повести и рассказы

Used drive : Optiarc DVD RW AD-7203S Adapter: 3 ID: 0

Read mode : Secure
Utilize accurate stream : Yes
Defeat audio cache : Yes
Make use of C2 pointers : No

Read offset correction : 48
Overread into Lead-In and Lead-Out : No
Fill up missing offset samples with silence : Yes
Delete leading and trailing silent blocks : No
Null samples used in CRC calculations : Yes
Used interface : Native Win32 interface for Win NT & 2000

Used output format : User Defined Encoder
Selected bitrate : 1024 kBit/s
Quality : High
Add ID3 tag : No
Command line compressor : C:Program FilesExact Audio Copywavpack.exe
Additional command line options : -hm %source% %dest%

TOC of the extracted CD

Track | Start | Length | Start sector | End sector
---------------------------------------------------------
1 | 0:00.00 | 2:55.69 | 0 | 13193
2 | 2:55.69 | 4:52.04 | 13194 | 35097
3 | 7:47.73 | 4:32.50 | 35098 | 55547
4 | 12:20.48 | 3:20.50 | 55548 | 70597
5 | 15:41.23 | 2:54.00 | 70598 | 83647
6 | 18:35.23 | 3:30.14 | 83648 | 99411
7 | 22:05.37 | 3:29.34 | 99412 | 115120
8 | 25:34.71 | 4:10.59 | 115121 | 133929
9 | 29:45.55 | 2:51.37 | 133930 | 146791
10 | 32:37.17 | 2:52.52 | 146792 | 159743
11 | 35:29.69 | 3:26.53 | 159744 | 175246
12 | 38:56.47 | 2:51.09 | 175247 | 188080
13 | 41:47.56 | 4:34.65 | 188081 | 208695

Ra
c344594614d2662628c53bd5cc4ef4fee6af94c0(2011) Вася Обломов / Повести и Рассказы (Стёб-Хоп Шансон) [WavPack (image+.cue), lossless] (2011) Вася Обломов / Повести и Рассказы (Стёб-Хоп Шансон) [WavPack (image+.cue), lossless] " />

Аплоадер: Админ, дата: 5-07-2011, 18:51, торрент скачан: 359 раз

Понравилась раздача? Посмотрите эти:
  • (Дискография) ДЕЛЬФИН (DOLPHIN) (Alternative) [WavPack/image+cue, lossless] ...
  • (2007) GORILLAZ / D-Sides [Japan Edition] (Hip-Hop) [FLAC (image+cue), loss ...
  • (2010) Сергей Трофимов (Трофим) / Всё не важно (Шансон) [FLAC(image+.cue), ...
  • (2010) Ассаи / Лифт (Rap) [FLAC(image+.cue), lossless]
  • (2010) Eminem / Recovery (Rap / Hip-Hop) [FLAC (tracks+.cue) lossless]
  • (2010) A-HA / 25 (2 CD) (Pop) [FLAC (image + .cue)]
  • (2010) Алиса / Ъ (The Hard Sign) (Hard Rock) [WavPack (iso.wv (image+.cue)) ...
  • (2010) YELLO / Yello By Yello. The Anthology (Limited Deluxe Edition 3CD+D ...
  • (2011) The Prodigy / Worlds On Fire (Big Beat, Rave) [FLAC (image+.cue), lo ...
  • (2011) Виктория - победительница / Victorious (OST) [FLAC (tracks+.cue), lo ...
  • (Сборник, 1976-1982) Rockets / 6 Альбомов (Electro Rock/Pop Rock/Space Rock ...
  • (2012) Christina Aguilera / The Best (Unofficial) (Pop) [FLAC (image+.cue), ...
  • (2010) Rihanna / Loud (R&B) [FLAC (tracks+.cue), lossless]
  • (1976) The Eagles / Hotel California [Japan Remastered] (Country Rock) [FLA ...
  • (2011) Вася Обломов / Повести и Рассказы (Rock / Альтернативный шансон) [MP ...
  • (2011) Linkin Park / Iridescent (Alternative Rock) [FLAC(image+.cue), lossl ...
  • (2011) Стас Михайлов / Только ты (Шансон) [Flac(image+.cue)Lossless]
  • (2011) Electric Universe / Higher Modes (Psytrance, Full On) [FLAC (tracks+ ...
  • (2009) Чиж & Co / Лучшее. Золотая коллекция (Rock) [FLAC (image+.cue), loss ...
  • (2011) Stargazery / Eye On The Sky (Heavy Metal) [FLAC (image+.cue), lossle ...
  • (2011) Слот / F5 (Alternative Metal) [FLAC (image+.cue)lossless]
  • (2011) Слот / Break The Code (Alternative Metal) [FLAC (image+.cue)lossless ...
  • (2011) Ленинград / Хна (Rock) [FLAC (tracks+.cue), lossless]
  • (2011) Volumes / Via (Progressive Metalcore/Math Metal) [FLAC (image+.cue), ...
  • (2012) Сплин / Обман зрения (Rock) [FLAC (image+.cue), lossless]
  • Информация
    Посетители, находящиеся в группе Гости, не могут оставлять комментарии к данной публикации.