вход на сайт

Имя пользователя :
Пароль :

Восстановление пароля Регистрация
(2001, сборник) VA / Легенды русского рока - The Best (Rock) [APE (image+.сue), lossless]
Рейтинг:
(голосов: 1)



[img]{THEME}/images/logopost.png[/img]



Исполнитель: VA / Легенды русского рока - The Best
Жанр: Rock
Формат: APE+.сue
Битрейт: lossless
Продолжительность: 06:34:75

Легенды русского рока - The Best1

Тип альбома: Compilation
Год выпуска: 2001
Формат: APE+.сue
Битрейт: lossless
Продолжительность: 01:08:40

Tреклист:
1. Кино - Звезда по имени солнце 3:45
2. Крематорий - Павлик Морозов 5:07
3. ДДТ - Я получил эту роль 5:40
4. Агата Кристи - Как на войне 4:06
5. Воскресение - Кто виноват 4:18
6. Калинов мост - Девочка летом 3:39
7. А.Градский - Песня о друге 4:26
8. Ноль - Иду,курю 3:34
9. Динамик - Мячик 3:31
10. Карнавал - Мона лиза 4:26
11. Бригада С - Playboy 4:51
12. Звуки Му - Cерый голубь 3:46
13. Круиз - Крутится волчок 3:33
14. Настя - Танец на цыпочках 6:41
15. А.Башлачёв - Время колокольчиков 3:46
16. Центр - Привет 3:32

"Отчет EAC" ▼TextExact Audio Copy V0.99 prebeta 4 from 23. January 2008

Отчёт EAC об извлечении, выполненном 7. августа 2008, 10:39

Various / The Best1

Дисковод: SONY DVD RW DW-G120A Adapter: 3 ID: 1

Режим чтения : Достоверность
Использование точного потока : Да
Отключение кэша аудио : Да
Использование указателей C2 : Нет

Коррекция смещения при чтении : 6
Способность читать области Lead-in и Lead-out : Нет
Заполнение пропущенных сэмплов тишиной : Да
Удаление блоков с тишиной в начале и конце : Нет
При вычислениях CRC использовались нулевые сэмплы : Да
Интерфейс : Установленный внешний ASPI-интерфейс

Выходной формат : Внутренние WAV-операции
Формат сэмплов : 44.100 Гц; 16 бит; стерео


TOC извлечённого CD

Трек | Старт | Длительность | Начальный сектор | Конечный сектор
---------------------------------------------------------------------
1 | 0:00.00 | 3:44.54 | 0 | 16853
2 | 3:44.54 | 5:06.67 | 16854 | 39870
3 | 8:51.46 | 5:40.20 | 39871 | 65390
4 | 14:31.66 | 4:05.54 | 65391 | 83819
5 | 18:37.45 | 4:17.73 | 83820 | 103167
6 | 22:55.43 | 3:38.51 | 103168 | 119568
7 | 26:34.19 | 4:25.59 | 119569 | 139502
8 | 31:00.03 | 3:34.00 | 139503 | 155552
9 | 34:34.03 | 3:30.48 | 155553 | 171350
10 | 38:04.51 | 4:26.35 | 171351  
a1415286023b08067a112e6b647bc6bd3c71d6db(2001, сборник) VA / Легенды русского рока - The Best (Rock) [APE (image+.сue), lossless] (2001, сборник) VA / Легенды русского рока - The Best (Rock) [APE (image+.сue), lossless] " />

Аплоадер: Админ, дата: 19-06-2011, 20:04, торрент скачан: 359 раз

Понравилась раздача? Посмотрите эти:
  • (1992) Smokie / The Story Of Smokie (2CD Set Germany, BMG, Ariola) (Rock) [ ...
  • (2009) Воскресение / The Best (Rock ) [APE (image + .cue), lossless]
  • (2012) Григорий Лепс / Полный вперёд (Шансон) [FLAC (image+.cue), Lossless ...
  • (2008, Сборник)VA/Легенды Русского Рока Лучшее [mp3, 224kbps/CBR]
  • (дискография, 1983-2008) MADONNA (pop / dance) [WavPack (image+.cue) lossle ...
  • (2000) Tic Tac Toe / Ist der Ruf erst ruiniert... (Rap,Hip-hop) [Lossless, ...
  • (2008) НоГГано / Первый (Rap) [APE(image+cue), lossless]
  • (1994) Joy / Grand Collection (EuroDisco) [FLAC (image+.cue) lossless]
  • (2010) Баста / Баста 3 (Rap) [APE (image+.cue), lossless]
  • (2010) ST1M / Октябрь (Rap) [APE(image+.cue), lossless]
  • (2006) Tokio / puls 200 (Alternative Rock / Pop Rock) [FLAC (image+.cue) lo ...
  • (2010) ДиДюЛя / Аромат (flamenco, instrumental, folk) [APE (image + .cue), ...
  • (1984) Boney M / Ten Thousand Lightyears (Disco) [APE (image+.cue) lossles ...
  • (1985) BABYS GANG / Challenger (Pop,Italo Disco) [APE(image+.cue)lossless] ...
  • (2010) ДаБац (Da Budz) / Вершки Да Корешки(Rap) [APE (image+.cue), lossless ...
  • (2011) Легенды Про / Желтый Дом (Rap) [FLAC (tracks+.cue), Lossless]
  • (2011) Within Temptation / The Unforgiving (Symphonic Gothic Metal) [FLAC ( ...
  • (2011) АукцЫон / Юла (Rock) [APE (image+.cue), lossless]
  • (2009) Rihanna / Rated R (R`n`B) [APE (image+.cue)]
  • (2008) БандЭрос / Коламбия Пикчерз Не Представляет. Новое Издание(R&B) [APE ...
  • ( 2001) Воскресение / Звездная коллекция (Rock) [FLAC (image+.cue) lossless ...
  • (2009, Cборник) Madonna / Greatest Hits [CD1 + CD2] (Pop) [APE (image+.cue) ...
  • (2011) КняZz / Письмо из Трансильвании (Punk-Rock) [APE (image+.сue), lossl ...
  • (2004) Ex-Сектор Газа / Огненный рай (Punk-Rock) [FLAC (image+.cue), lossle ...
  • (2008) Студия 80 / Придуманный Мир (Pop) [FLAC (image+.cue), lossless]
  • Информация
    Посетители, находящиеся в группе Гости, не могут оставлять комментарии к данной публикации.