вход на сайт

Имя пользователя :
Пароль :

Восстановление пароля Регистрация
(2003) Пикник / Говорит и показывает (Полная история) (Rock) [WavPack (image+.cue), lossless]
Рейтинг:
(голосов: 1)



[img]{THEME}/images/logopost.png[/img]



Исполнитель: Пикник
Альбом: Говорит и показывает (Полная история)
Тип альбома: Студийный
Страна: Россия
Жанр: Rock
Год: 2003
Информация: VECTOR - СD 01-20
Формат: WavPack (image+.cue)
Битрейт: lossless
Продолжительность: 00:43:25

Треклист:
01. Серебра!!! (4:21)
02. Говорит и показывает (4:18)
03. Побежать бы за леса-горы (4:55)
04. Клянись же, ешь землю! (4:07)
05. До Содома далеко (5:18)
06. Пентакль (5:04)
07. Я почти итальянец (4:19)
08. Знаки в окне (3:22)
09. Иероним (4:55)
10. Настрадался Нострадамус от людей (2:48)

"Отчет EAC" ▼TextExact Audio Copy V1.0 beta 1 from 15. November 2010

EAC extraction logfile from 6. June 2011, 9:26

Пикник / Говорит и показывает (Полная история)

Used drive : hp DVD-RAM GH40L Adapter: 7 ID: 0

Read mode : Secure
Utilize accurate stream : Yes
Defeat audio cache : Yes
Make use of C2 pointers : No

Read offset correction : 667
Overread into Lead-In and Lead-Out : No
Fill up missing offset samples with silence : Yes
Delete leading and trailing silent blocks : No
Null samples used in CRC calculations : Yes
Used interface : Native Win32 interface for Win NT & 2000

Used output format : Internal WAV Routines
Sample format : 44.100 Hz; 16 Bit; Stereo


TOC of the extracted CD

Track | Start | Length | Start sector | End sector
---------------------------------------------------------
1 | 0:00.00 | 4:20.53 | 0 | 19552
2 | 4:20.53 | 4:17.55 | 19553 | 38882
3 | 8:38.33 | 4:54.58 | 38883 | 60990
4 | 13:33.16 | 4:06.49 | 60991 | 79489
5 | 17:39.65 | 5:17.51 | 79490 | 103315
6 | 22:57.41 | 5:04.04 | 103316 | 126119
7 | 28:01.45 | 4:18.63 | 126120 | 145532
8 | 32:20.33 | 3:22.31 | 145533 | 160713
9 | 35:42.64 | 4:54.51 | 160714 | 182814
10 | 40:37.40 | 2:47.59 | 182815 | 195398
11 | 45:57.24 | 10:18.17 | 206799 | 253165


Range status and errors

Selected range

Filename C:UsersWAN0777DesktopLossless Galaxy Rip by WANO777Пикник - Говорит и показывает (Полная история).wav

Peak level 96.6 %
Extraction speed 1.6 X
Range quality 100.0 %
Test CRC 84BC6449
Copy CRC 84BC6449
Copy OK

No errors occurred


AccurateRip summary

Track 1 accurately ripped (confidence 1) [DDF58584]
Track 2 accurately ripped (confidence 1) [F49B4411]
Track 3 accurately ripped (confidence 1) [81D16D85]
Track 4 accurately ripped (confidence 1) [66AF43A0]
Track 5 accurately ripped (confidence 1) [91176187]
Track 6 accurately ripped (confidence 1) [A640B832]
Track 7 accurately ripped (confidence 1) [DC892543]
Track 8 accurately ripped (confidence 1) [5D374A38]
Track 9 accurately ripped (confidence 1) [76F3CAA2]
Track 10 not present in database

9 track(s) accurately ripped
1 track(s) not present in the AccurateRip database

Some tracks could not be verified as accurate

End of status report

==== Log checksum 289427705FC2FB2E55A990BFD4CCB59336360F739EFDFB9D80F9C5846D3CE3C3 ====



b37faebfd0f3c9fc283512ad3b768bd3bbeaca96(2003) Пикник / Говорит и показывает (Полная история) (Rock) [WavPack (image+.cue), lossless] (2003) Пикник / Говорит и показывает (Полная история) (Rock) [WavPack (image+.cue), lossless] " />

Аплоадер: Админ, дата: 9-06-2011, 18:08, торрент скачан: 359 раз

Понравилась раздача? Посмотрите эти:
  • (2002) Urker / Уркер / Made In Kazakhstan (Pop, Ethno) [FLAC (image+.cue), ...
  • (Soundtrack,2002) Пианист / The Pianist - Music from the Motion Picture (Fr ...
  • ( Soundtrack,1999) VA - American Beauty Original Motion Picture Soundtrack ...
  • (Дискография) 1981-2009 Depeche Mode (Electronic, Synthpop) [FLAC (tracks+ ...
  • (1989) Kaoma / Lambada (lambada / latin / ethnic) [FLAC (image+.cue), lossl ...
  • Slayer - 12 CD (Original Japanese Editions) (Thrash Metal) [FLAC(image+.cue ...
  • (1968) Ten Years After / Undead (Rock / Blues / Blues Rock) [Flac (tracks+. ...
  • (1986 [2010]) Пикник / Иероглиф (Полная история) (Rock) [WavPack (image+.cu ...
  • (2001) Пикник / Египтянин (Полная история) (Rock) [WavPack (image+.cue), lo ...
  • (Дискография1983 - 1985) Eddie Jobson (ProgRock, Electronic) [APE (image+.c ...
  • (Дискография, 1985 - 2009) Sandra (Pop) [APE (image+.cue), FLAC (image+.cue ...
  • (2011, 5CD Box set) Boney M / Original Album Classics (Reggae, Disco, R&B, ...
  • (1984) Van Halen / 1984 (Japanese 1984 SHM-CD Edition) (Hard & Heavy) [APE ...
  • (2007) Maximum the Hormone / マキシマム ザ ホルモン / Buiikikaesu (Hardcore / J-Rock ...
  • (2011) Linkin Park / Iridescent (Alternative Rock) [FLAC(image+.cue), lossl ...
  • (2011) Сурганова & Оркестр / Увидимся скоро (Rock) [FLAC (image+.cue), loss ...
  • (2011) Metallica / Beyond Magnetic (Thrash Metal) [FLAC (image+.cue), lossl ...
  • (Дискография, 2002 - 2012) Rodrigo y Gabriela (Acoustic, Flamenco, Classica ...
  • (1994, 5 CD Box set) Echoes Of Nature (Звуки природы) / The Natural Sounds ...
  • (2012) Adrenaline Mob / Omerta (Heavy Metal/Progressive/Nu-Metal) [FLAC (im ...
  • (2012) Crippled Black Phoenix / (Mankind) The Crafty Ape (Alternative/Indie ...
  • (2012) Young Guns / Bones (Alternative Rock) [FLAC (tracks +.cue), lossless ...
  • (2011) Sylvan / Sceneries (Neo-Progressive) [FLAC (image+.cue), lossless]
  • (2009) Exivious (Ex. Cynic) / Exivious (Progressive Metal/Death Metal) [FLA ...
  • (2011) Lou Reed & Metallica / Lulu (Heavy Metal, Hard Rock) [FLAC (image+.c ...
  • Информация
    Посетители, находящиеся в группе Гости, не могут оставлять комментарии к данной публикации.