вход на сайт

Имя пользователя :
Пароль :

Восстановление пароля Регистрация
(2001) Пикник / Египтянин (Полная история) (Rock) [WavPack (image+.cue), lossless]
Рейтинг:
(голосов: 1)



[img]{THEME}/images/logopost.png[/img]



Исполнитель: Пикник
Альбом: Египтянин (Полная история)
Тип альбома: Студийный
Год выпуска: 2001
Жанр: Rock
Страна: Россия
Информация: VECTOR - СD 01-20
Формат: WavPack (image+.cue)
Битрейт: lossless
Продолжительность: 00:42:10

Треклист:
01. Миллион в мешке (3:25)
02. Ни твое, ни мое (4:15)
03. Фиолетово-черный (4:10)
04. Египтянин (5:10)
05. Лакомо и ломко (4:39)
06. Ты - королева ночи / Бал (4:32)
07. Через 10000 лет (3:45)
08. Перламутр и пырей (4:15)
09. Взгляд туманный пьет нирвану (3:43)
10. Вдалеке от городов (4:17)

Эдмунд Шклярский — музыка, слова, вокал, гитара
Святослав Образцов — бас-гитара, бэк-вокал
Сергей Воронин — клавишные
Леонид Кирнос — ударные, перкуссия

"Отчет EAC" ▼TextExact Audio Copy V1.0 beta 1 from 15. November 2010

EAC extraction logfile from 6. June 2011, 2:52

Пикник / Египтянин (Полная история)

Used drive : hp DVD-RAM GH40L Adapter: 7 ID: 0

Read mode : Secure
Utilize accurate stream : Yes
Defeat audio cache : Yes
Make use of C2 pointers : No

Read offset correction : 667
Overread into Lead-In and Lead-Out : No
Fill up missing offset samples with silence : Yes
Delete leading and trailing silent blocks : No
Null samples used in CRC calculations : Yes
Used interface : Native Win32 interface for Win NT & 2000

Used output format : Internal WAV Routines
Sample format : 44.100 Hz; 16 Bit; Stereo


TOC of the extracted CD

Track | Start | Length | Start sector | End sector
---------------------------------------------------------
1 | 0:00.00 | 3:25.23 | 0 | 15397
2 | 3:25.23 | 4:15.29 | 15398 | 34551
3 | 7:40.52 | 4:09.53 | 34552 | 53279
4 | 11:50.30 | 5:10.23 | 53280 | 76552
5 | 17:00.53 | 4:38.49 | 76553 | 97451
6 | 21:39.27 | 4:32.12 | 97452 | 117863
7 | 26:11.39 | 3:44.47 | 117864 | 134710
8 | 29:56.11 | 4:14.47 | 134711 | 153807
9 | 34:10.58 | 3:42.44 | 153808 | 170501
10 | 37:53.27 | 4:17.10 | 170502 | 189786
11 | 44:42.37 | 17:24.03 | 201187 | 279489


Range status and errors

Selected range

Filename C:UsersWAN0777DesktopLossless Galaxy Rip by WANO777Пикник - Египтянин (Полная история).wav

Peak level 96.6 %
Extraction speed 1.2 X
Range quality 100.0 %
Test CRC 0438BAD1
Copy CRC 0438BAD1
Copy OK

No errors occurred


AccurateRip summary

Track 1 not present in database
Track 2 not present in database
Track 3 not present in database
Track 4 not present in database
Track 5 not present in database
Track 6 not present in database
Track 7 not present in database
Track 8 not present in database
Track 9 not present in database
Track 10 not present in database

None of the tracks are present in the AccurateRip database

End of status report

==== Log checksum 09AD9D226E81663306DCC82715E9268C7FC1658787B9FBDFBFF92B9A21B2EAE1 ====

"Отчет Audiochecker" ▼TextAUDIOCHECKER v2.0 beta (build 457) - by Dester - [email protected]
~~~~~~~~~~~~~~~~~~~~~~~~~~~~~~~~~~
-=== НЕ РЕДАКТИРУЙТЕ ЭТОТ ФАЙЛ! ===-

Путь: ...Lossless Galaxy Rip by WANO777

1 -=- Пикник - Египтянин (Полная история).wav -=- CDDA (100%)

259171540



ed13887a5f6a8feb6d4710d93762d84a93cd11bf(2001) Пикник / Египтянин (Полная история) (Rock) [WavPack (image+.cue), lossless] (2001) Пикник / Египтянин (Полная история) (Rock) [WavPack (image+.cue), lossless] " />

Аплоадер: Админ, дата: 8-06-2011, 19:47, торрент скачан: 359 раз

Понравилась раздача? Посмотрите эти:
  • (2013) Мумий Тролль / SOS Матросу - 2013, (Rock) [FLAC (image+.cue), lossle ...
  • (2013) Linkin Park & Steve Aoki / A Light That Never Comes (Electronic Rock ...
  • (2010) Алиса / Ъ (The Hard Sign) (Hard Rock) [WavPack (iso.wv (image+.cue)) ...
  • (2011) Mylene Farmer/ Bleu Noir (CDS + CDM) (Pop) [APE (image+.cue) lossles ...
  • (2011) Scar Symmetry / The Unseen Empire (Melodic Death Metal) [FLAC (image ...
  • (1986 [2010]) Пикник / Иероглиф (Полная история) (Rock) [WavPack (image+.cu ...
  • (2003) Пикник / Говорит и показывает (Полная история) (Rock) [WavPack (imag ...
  • (2011) Sepultura / Kairos (Thrash Metal) [Flac(image+.cue)lossless]
  • (2012) Linkin Park / Burn It Down (Alternative Rock) (Single) [FLAC (image+ ...
  • (Дискография, 1987-1999) Obliveon (Technical Thrash Metal) [FLAC (image+.cu ...
  • (2011 15CD Box Set Digitally Remaster) Rush - Sectors (Rock, Progressive R ...
  • (2009) Miley Cyrus / The Time of Our Lives (Pop) [FLAC (tracks+.cue), lossl ...
  • (2011) VA / Танцевальный Рай 27 (Pop) [FLAC (image+.cue), lossless]
  • (2011) Linkin Park / Iridescent (Alternative Rock) [FLAC(image+.cue), lossl ...
  • (2011) JORN / Live In Black (Heavy/Progressive Metal ) [FLAC (image+.cue), ...
  • (2011) Rammstein / Mein Land (Neue Deutsche Harte, Industrial, Tanz-Metal) ...
  • (2011) Adriano Celentano / Facciamo Finta Che Sia Vero (POP) [FLAC (image+. ...
  • (2011) Сурганова & Оркестр / Увидимся скоро (Rock) [FLAC (image+.cue), loss ...
  • (2011) This Will Destroy You / Tunnel Blanket (Post Rock) [FLAC (tracks+.cu ...
  • (2011) Metallica / Beyond Magnetic (Thrash Metal) [FLAC (image+.cue), lossl ...
  • (2012) Adrenaline Mob / Omerta (Heavy Metal/Progressive/Nu-Metal) [FLAC (im ...
  • (2012) Crippled Black Phoenix / (Mankind) The Crafty Ape (Alternative/Indie ...
  • (2010) Татьяна Буланова / Романсы (Pop) [FLAC (image+.cue), lossless]
  • (2011) Lou Reed & Metallica / Lulu (Heavy Metal, Hard Rock) [FLAC (image+.c ...
  • (2010) Punish My Heaven / First Punishment (Melodic Death Metal, Metalcore) ...
  • Информация
    Посетители, находящиеся в группе Гости, не могут оставлять комментарии к данной публикации.