вход на сайт

Имя пользователя :
Пароль :

Восстановление пароля Регистрация
(1986 [2010]) Пикник / Иероглиф (Полная история) (Rock) [WavPack (image+.cue), lossless]
Рейтинг:
(голосов: 1)



[img]{THEME}/images/logopost.png[/img]



Исполнитель: Пикник
Альбом: Иероглиф (Полная история)
Тип альбома: Студийный
Страна: СССР / Россия
Жанр: Rock
Год выпуска: 1986
Информация: VECTOR - СD 01-20
Формат: WavPack (image+.cue)
Битрейт: lossless
Продолжительность: 00:38:43

Треклист:
[04:49] 01. Пикник - Остров
[06:13] 02. Пикник - Иероглиф
[04:50] 03. Пикник - Праздник
[04:22] 04. Пикник - Ты вся из огня
[05:47] 05. Пикник - Ночь
[04:58] 06. Пикник - Телефон
[04:33] 07. Пикник - Пикник
[03:07] 08. Пикник - Великан

Эдмунд Шклярский, вокал, гитара, фортепиано (1, 8)
Александр Савельев, гитара, акустическая гитара (2, 5, 8)
Сергей Воронин, клавишные
Юрий Ключенцев, клавишные, саксофон (6), скрипка (8)
Виктор Евсеев, бас-гитара, вокал
Вадим Пономарев, ударные
Аранжировки Эдмунда Шклярского
Звукорежиссеры: А. Бороусов, Ф. Гурджи. Редактор И. Рябова

Отчет EAC
▼TextExact Audio Copy V1.0 beta 1 from 15. November 2010

EAC extraction logfile from 6. June 2011, 0:36

Пикник / Иероглиф (Полная история)

Used drive : hp DVD-RAM GH40L Adapter: 7 ID: 0

Read mode : Secure
Utilize accurate stream : Yes
Defeat audio cache : Yes
Make use of C2 pointers : No

Read offset correction : 667
Overread into Lead-In and Lead-Out : No
Fill up missing offset samples with silence : Yes
Delete leading and trailing silent blocks : No
Null samples used in CRC calculations : Yes
Used interface : Native Win32 interface for Win NT & 2000

Used output format : Internal WAV Routines
Sample format : 44.100 Hz; 16 Bit; Stereo


TOC of the extracted CD

Track | Start | Length | Start sector | End sector
---------------------------------------------------------
1 | 0:00.00 | 4:49.43 | 0 | 21717
2 | 4:49.43 | 6:13.74 | 21718 | 49766
3 | 11:03.42 | 4:50.39 | 49767 | 71555
4 | 15:54.06 | 4:22.48 | 71556 | 91253
5 | 20:16.54 | 5:47.24 | 91254 | 117302
6 | 26:04.03 | 4:58.41 | 117303 | 139693
7 | 31:02.44 | 4:33.66 | 139694 | 160234
8 | 35:36.35 | 3:07.28 | 160235 | 174287
9 | 41:15.63 | 12:53.00 | 185688 | 243662


Range status and errors

Selected range

Filename C:UsersWAN0777DesktopLossless Galaxy Rip by WANO777Пикник - Иероглиф (Полная история).wav

Peak level 96.5 %
Extraction speed 0.9 X
Range quality 100.0 %
Test CRC 2084EDE7
Copy CRC 2084EDE7
Copy OK

No errors occurred


AccurateRip summary

Track 1 not present in database
Track 2 not present in database
Track 3 not present in database
Track 4 not present in database
Track 5 not present in database
Track 6 not present in database
Track 7 not present in database
Track 8 not present in database

None of the tracks are present in the AccurateRip database

End of status report

==== Log checksum B2E375042559EB26F3DD21A7B7640061B6F1F3AAE4BEB615AA10F2E71B4F32B1 ====

Отчет Audiochecker
▼TextAUDIOCHECKER v2.0 beta (build 457) - by Dester - [email protected]
~~~~~~~~~~~~~~~~~~~~~~~~~~~~~~~~~~
-=== НЕ РЕДАКТИРУЙТЕ ЭТОТ ФАЙЛ! ===-

Путь: ...Lossless Galaxy Rip by WANO777

1 -=- Пикник - Иероглиф (Полная история).wav -=- CDDA (100%)



739c3d4289c8447688c00456ed2b6914d69db778(1986 [2010]) Пикник / Иероглиф (Полная история) (Rock) [WavPack (image+.cue), lossless] (1986 [2010]) Пикник / Иероглиф (Полная история) (Rock) [WavPack (image+.cue), lossless] " />

Аплоадер: Админ, дата: 8-06-2011, 08:35, торрент скачан: 359 раз

Понравилась раздача? Посмотрите эти:
  • (2013) Мумий Тролль / SOS Матросу - 2013, (Rock) [FLAC (image+.cue), lossle ...
  • (2013) Пикник / Азбука Морзе (3 CD) (Русский Рок) [MP3, 320/CBR]
  • (1982-2009) ПИКНИК - 18 альбомов (Русский рок) [MP3 320JointStereo]
  • (1999) Пикник/ The Best (Русский рок) [MP3, 160/CBR]
  • (Дискография) Пикник (русский рок) [FLAC (tracks+.cue), ISO.WV (image), los ...
  • (2010) ПИKНИК / Театр Абсурда (Art-Rock) [FLAC (tracks+.cue), lossless]
  • (2011) Mylene Farmer/ Bleu Noir (CDS + CDM) (Pop) [APE (image+.cue) lossles ...
  • (2001) Пикник / Египтянин (Полная история) (Rock) [WavPack (image+.cue), lo ...
  • (2003) Пикник / Говорит и показывает (Полная история) (Rock) [WavPack (imag ...
  • (2011) Sepultura / Kairos (Thrash Metal) [Flac(image+.cue)lossless]
  • (2012) Linkin Park / Burn It Down (Alternative Rock) (Single) [FLAC (image+ ...
  • (2011 15CD Box Set Digitally Remaster) Rush - Sectors (Rock, Progressive R ...
  • (2010) Пикник / Театр Абсурда [mp3, 320 kbps, CBR]
  • (2011) Linkin Park / Iridescent (Alternative Rock) [FLAC(image+.cue), lossl ...
  • (2011) Пикник / Три судьбы (Rock) [MP3, 320 kbps,CBR]
  • (2011) JORN / Live In Black (Heavy/Progressive Metal ) [FLAC (image+.cue), ...
  • (2011) Rammstein / Mein Land (Neue Deutsche Harte, Industrial, Tanz-Metal) ...
  • (2011) БИ-2 и Пикник / Остров (Rock) [MP3, 320/CBR]
  • (2011) Сурганова & Оркестр / Увидимся скоро (Rock) [FLAC (image+.cue), loss ...
  • (2011) Metallica / Beyond Magnetic (Thrash Metal) [FLAC (image+.cue), lossl ...
  • (2012) Adrenaline Mob / Omerta (Heavy Metal/Progressive/Nu-Metal) [FLAC (im ...
  • (2012) Crippled Black Phoenix / (Mankind) The Crafty Ape (Alternative/Indie ...
  • (2010) Татьяна Буланова / Романсы (Pop) [FLAC (image+.cue), lossless]
  • (2011) Lou Reed & Metallica / Lulu (Heavy Metal, Hard Rock) [FLAC (image+.c ...
  • (2010) Punish My Heaven / First Punishment (Melodic Death Metal, Metalcore) ...
  • Информация
    Посетители, находящиеся в группе Гости, не могут оставлять комментарии к данной публикации.