вход на сайт

Имя пользователя :
Пароль :

Восстановление пароля Регистрация
(2011) Lumen / Лабиринт (Alt. Rock) [FLAC (image+.cue), lossless]
Рейтинг:
(голосов: 1)



[img]{THEME}/images/logopost.png[/img]



Исполнитель: Lumen
Альбом: Лабиринт
Тип альбома: Live
Год выпуска: 2011
Жанр: Alt. Rock
Формат: FLAC (image+.cue)
Битрейт: lossless
Продолжительность: 1:36:49

Tреклист:
CD 1
1. Intro (Тула 30.10.2010)
2. Sid & Nancy (Екатеринбург 17.10.2010)
3. Одной крови (Иваново 05.11.2010)
4. Дотянуться до звезды (Санкт -Петербург 29.10.2010)
5. Гонка (Томск 13.10.2010)
6. Нули и единицы (Могилёв 22.11.2010)
7. Сколько? (Донецк 17.11.2010)
8. Слова (Ставрополь 30.11.2010)
9. Пора орать! (Омск 15.10.2010)
10. Хватит! (Казань 12.11.2010)
11. Вся вера и любовь этого мира (Воронеж 25.11.2010)

CD 2
12. Лабиринт (Красноярск 10.10.2010)
13. Секунда (Самара 02.12.2010)
14. Не надо снов (Нижний Новгород 11.11.2010)
15. Тень (Новосибирск 11.10.2010)
16. На части (Минск 21.11.2010)
17. С4 (Краснодар 29.11.2010)
18. Далеко (Ижевск 19.10.2010)
19. F... off! (Киев 19.11.2010)
20. Пока ты спал (Архангельск 26.10.2010)
21. Мама мы все тяжело больны (Уфа 14.11.2010)
22. Паспорт (Ростов-на-Дону 24.11.2010)
23. Государство (Рязань 04.11.2010)
24. Марш согласных (Вологда 24.10.2010)
25. Гореть (Москва 27.11.2010)
26. 6 миллиардов (Ярославль 22.10.2010)
27. Когда... (Пермь 07.11.2010)

"Отчет EAC" ▼TextExact Audio Copy V1.0 beta 1 from 15. November 2010

EAC extraction logfile from 1. April 2011, 15:00

Lumen / Лабиринт

Used drive : Optiarc DVD RW AD-7200A Adapter: 0 ID: 1

Read mode : Secure
Utilize accurate stream : Yes
Defeat audio cache : Yes
Make use of C2 pointers : No

Read offset correction : 48
Overread into Lead-In and Lead-Out : No
Fill up missing offset samples with silence : Yes
Delete leading and trailing silent blocks : No
Null samples used in CRC calculations : Yes
Used interface : Native Win32 interface for Win NT & 2000

Used output format : User Defined Encoder
Selected bitrate : 768 kBit/s
Quality : High
Add ID3 tag : No
Command line compressor : C:Program FilesExact Audio CopyFLACFLAC.EXE
Additional command line options : -6 -V -T "ARTIST=%a" -T "TITLE=%t" -T "ALBUM=%g" -T "DATE=%y" -T "TRACKNUMBER=%n" -T "GENRE=%m" -T "COMMENT=%e" %j--picture="%i"%j %s -o %d

TOC of the extracted CD

Track | Start | Length | Start sector | End sector
---------------------------------------------------------
1 | 0:00.00 | 2:53.71 | 0 | 13045
2 | 2:53.71 | 3:38.06 | 13046 | 29401
3 | 6:32.02 | 3:21.53 | 29402 | 44529
4 | 9:53.55 | 3:03.17 | 44530 | 58271
5 | 12:56.72 | 3:20.39 | 58272 | 73310
6 | 16:17.36 | 2:57.05 | 73311 | 86590
7 | 19:14.41 | 3:56.43 | 86591
466153e0900ef23cd5f43d76cb409b69eb0fe0d9(2011) Lumen / Лабиринт (Alt. Rock) [FLAC (image+.cue), lossless] (2011) Lumen / Лабиринт (Alt. Rock) [FLAC (image+.cue), lossless] " />

Аплоадер: Админ, дата: 2-04-2011, 10:57, торрент скачан: 359 раз

Понравилась раздача? Посмотрите эти:
  • (1996) George Michael / Older (1st Press Japan) (Electronic, Pop/Rock) [FLA ...
  • (2013) Paul McCartney / New (Deluxe Edition) (Rock) [FLAC (image,+.cue), lo ...
  • (2010) Clean Tears / Innerve (Techno, Vocaloid) [FLAC (tracks+.cue), lossle ...
  • (2010) Tinie Tempah / Disc-Overy (Hip-Hop/ Grime) [FLAC (tracks+ .cue) loss ...
  • (2010) Вячеслав Бутусов и Ю-Питер / Цветы и Тернии (Rock) [FLAC (tracks + . ...
  • (2010) Zaz / Zaz (Nu jazz, Chanson, Soul) [FLAC (tracks+.cue), lossless]
  • (2011) Adele / 21 (Jazz, Lounge, Easy Listening) [FLAC (tracks + .cue), los ...
  • (2011) The Prodigy / Worlds On Fire (Big Beat, Rave) [FLAC (image+.cue), lo ...
  • (2011) Виктория - победительница / Victorious (OST) [FLAC (tracks+.cue), lo ...
  • (2010) Ravenna / Debrief (Alt. Rock / Christian Rock / Indie) [FLAC (tracks ...
  • (2011) B.B. King / Icon (Blues) [FLAC (tracks+.cue), lossless]
  • (2001, 5 CD Box set) VA / Rock Mantique Top 100 Vol.3 (Pop/Rock) [FLAC (ima ...
  • (2011) Ляпис Трубецкой / Веселые картинки (Rock) [FLAC (tracks+.cue), lossl ...
  • (2011) Gandharva / Lord of the Universe (New Age, Classical, Erhu) [FLAC (t ...
  • (2011) Stargazery / Eye On The Sky (Heavy Metal) [FLAC (image+.cue), lossle ...
  • (2011) Ленинград / Хна (Rock) [FLAC (tracks+.cue), lossless]
  • (2012) Anneke van Giersbergen / Everything Is Changing (Alternative Rock/Fe ...
  • (2011) Volumes / Via (Progressive Metalcore/Math Metal) [FLAC (image+.cue), ...
  • (2012) Game Over / For Humanity (Thrash Metal) [FLAC (image+.cue), lossless ...
  • (2011) Skindred / Union Black (Alternative Metal, Ragga-Metal) [FLAC (track ...
  • Информация
    Посетители, находящиеся в группе Гости, не могут оставлять комментарии к данной публикации.