вход на сайт

Имя пользователя :
Пароль :

Восстановление пароля Регистрация
(2007) Константин Никольский / Иллюзии (Rock) [APE (image + .cue), lossless]
Рейтинг:
(голосов: 1)



[img]{THEME}/images/logopost.png[/img]



Исполнитель: Константин Никольский
Альбом: Иллюзии
Тип альбома: Студийный
Год выпуска: 2007
Жанр: Rock
Формат: APE (image+.cue)
Битрейт: lossless
Продолжительность: 00:41:48

Tреклист:
01. Иллюзии [04:21]
02. Пред чертой [04:05]
03. Только там [04:24]
04. Цветок у окна [04:18]
05. Голос [04:04]
06. Мне только снится жизнь моя [05:24]
07. В тишине заката [03:11]
08. Облако [02:52]
09. Песня о песне [05:11]
10. Утешь меня, судьба [03:54]

"Отчет EAC" ▼Exact Audio Copy V0.99 prebeta 3 from 28. July 2007

EAC extraction logfile from 28. September 2007, 22:39

Константин Никольский / Иллюзии

Used drive: PLEXTOR DVDR PX-755A Adapter: 0ID: 1

Read mode : Secure
Utilize accurate stream : Yes
Defeat audio cache: Yes
Make use of C2 pointers : No

Read offset correction: 33
Overread into Lead-In and Lead-Out: No
Fill up missing offset samples with silence : Yes
Delete leading and trailing silent blocks : No
Null samples used in CRC calculations : Yes
Used interface: Installed external ASPI interface

Used output format : Internal WAV Routines
Sample format: 44.100 Hz; 16 Bit; Stereo


TOC of the extracted CD

Track | Start|Length| Start sector | End sector
---------------------------------------------------------
1|0:00.00 |4:21.30 | 0|19604
2|4:21.30 |4:05.57 | 19605|38036
3|8:27.12 |4:24.31 | 38037|57867
4| 12:51.43 |4:18.62 | 57868|77279
5| 17:10.30 |4:04.09 | 77280|95588
6| 21:14.39 |5:24.61 | 95589| 119949
7| 26:39.25 |3:11.08 |119950| 134282
8| 29:50.33 |2:52.68 |134283| 147250
9| 32:43.26 |5:11.10 |147251| 170585
10| 37:54.36 |3:54.02 |170586| 188137


Range status and errors
bd437b3779711c4b3eb7afc48de2e66111d1747c(2007) Константин Никольский / Иллюзии (Rock) [APE (image + .cue), lossless] (2007) Константин Никольский / Иллюзии (Rock) [APE (image + .cue), lossless] " />

Аплоадер: Админ, дата: 6-01-2011, 12:59, торрент скачан: 359 раз

Понравилась раздача? Посмотрите эти:
  • (1996) Константин Никольский / Один взгляд назад (Rock ) [APE (image + .cu ...
  • (2013) Мумий Тролль / SOS Матросу - 2013, (Rock) [FLAC (image+.cue), lossle ...
  • (2007) GORILLAZ / D-Sides [Japan Edition] (Hip-Hop) [FLAC (image+cue), loss ...
  • (2008) Ассаи / Фаталист (Rap) [Ape(image+.cue), lossless]
  • (2008) Капа и Картель / Гламурным (Rap) [Ape(image+ cue), lossless]
  • (1989) Kaoma / Lambada (lambada / latin / ethnic) [FLAC (image+.cue), lossl ...
  • (1977) Space / Deliverance (Electronica) [FLAC (image + .cue) lossless]
  • (2010) Ассаи / Лифт (Rap) [FLAC(image+.cue), lossless]
  • (2010) Tarja Turunen / What Lies Beneath (Limited Edition) (Symphonic Metal ...
  • (2010) Алиса / Ъ (The Hard Sign) (Hard Rock) [WavPack (iso.wv (image+.cue)) ...
  • [LP] (2007) Константин Никольский / Иллюзии (Rock) [WAVPack (image+.cue), l ...
  • (2008) Юрий Наумов / Рок как будто Блюз (Blues) [FLAC (Image+.cue), lossles ...
  • (2011) 3 Doors Down / Time Of My Life [Deluxe Edition] (Alternative Rock/Po ...
  • (2010) 2Pac / Greatest Hits (Rap & Hip Hop) [APE (image+.cue), lossless]
  • (1976) The Eagles / Hotel California [Japan Remastered] (Country Rock) [FLA ...
  • (2011) Yanni / Truth Of Touch (New Age) [FLAC (image+ .cue),lossless]
  • (2011) Linkin Park / Iridescent (Alternative Rock) [FLAC(image+.cue), lossl ...
  • (2011) Стас Михайлов / Только ты (Шансон) [Flac(image+.cue)Lossless]
  • (2009) Чиж & Co / Лучшее. Золотая коллекция (Rock) [FLAC (image+.cue), loss ...
  • (2011) Сурганова & Оркестр / Увидимся скоро (Rock) [FLAC (image+.cue), loss ...
  • (2011) Metallica / Beyond Magnetic (Thrash Metal) [FLAC (image+.cue), lossl ...
  • (2012) Crippled Black Phoenix / (Mankind) The Crafty Ape (Alternative/Indie ...
  • (2012) Fox / 2012 (Melodic Hard Rock) [FLAC (image +.cue), lossless]
  • (2010) Татьяна Буланова / Романсы (Pop) [FLAC (image+.cue), lossless]
  • (2011) Lou Reed & Metallica / Lulu (Heavy Metal, Hard Rock) [FLAC (image+.c ...
  • Информация
    Посетители, находящиеся в группе Гости, не могут оставлять комментарии к данной публикации.