вход на сайт

Имя пользователя :
Пароль :

Восстановление пароля Регистрация
(2006) Tokio / puls 200 (Alternative Rock / Pop Rock) [FLAC (image+.cue) lossless]
Рейтинг:
(голосов: 1)



[img]{THEME}/images/logopost.png[/img]



Исполнитель Tokio
Альбом: Puls 200
Тип альбома: Студийный
Год выпуска: 2006
Жанр: Alternative Rock / Pop Rock
Формат: FLAC(image+.cue)
Битрейт: lossless
Продолжительность: 01:02:15

Трэклист
[05:24] 01. TOKIO - Мой Мир
[04:38] 02. TOKIO - Кого Ты Сделаешь Мною
[05:40] 03. TOKIO - Глубина
[05:10] 04. TOKIO - Кочевники
[04:08] 05. TOKIO - Шумный Город
[03:33] 06. TOKIO - Если Да
[04:51] 07. TOKIO - Есть Ты
[04:09] 08. TOKIO - Кто Я Без Тебя
[04:12] 09. TOKIO - Беги Любовь
[05:56] 10. TOKIO - Когда Ты Плачешь
[05:48] 11. TOKIO - Индира Ганди
[06:15] 12. TOKIO - Мои Иллюзии
[03:30] 13. TOKIO - Кто Я Без Тебя (light version)
[04:11] 14. TOKIO - Кто Я Без Тебя feat КРП


Отчеты ЕАС ▼Exact Audio Copy V0.99 prebeta 4 from 23. January 2008

Отчёт EAC об извлечении, выполненном 17. февраля 2008, 19:59

TOKIO / PULS 200

Дисковод: MATSHITAUJDA765aDVD/CDRW Adapter: 0ID: 1

Режим чтения : Достоверность
Использование точного потока : Да
Отключение кэша аудио: Да
Использование указателей C2: Нет

Коррекция смещения при чтении : 102
Способность читать области Lead-in и Lead-out : Нет
Заполнение пропущенных сэмплов тишиной: Да
Удаление блоков с тишиной в начале и конце: Нет
При вычислениях CRC использовались нулевые сэмплы : Да
Интерфейс : Установленный внешний ASPI-интерфейс

Выходной формат: Пользовательский кодировщик
Выбранный битрейт: 1024 kBit/s
Качество : Высокий
Добавление ID3-тэга: Да
Утилита сжатия : C:Program FilesExact Audio CopyFlacflac.exe
Дополнительные параметры : -T "artist=%a" -T "title=%t" -T "album=%g" -T "date=%y" -T "tracknumber=%n" -T "genre=%m" -5 %s


TOC извлечённого CD

Трек | Старт| Длительность | Начальный сектор | Конечный сектор
---------------------------------------------------------------------
1|0:00.00 |5:24.15 | 0|24314
2|5:24.15 |4:38.70 | 24315|45234
3| 10:03.10 |5:40.28 | 45235|70762
4| 15:43.38 |5:10.37 | 70763|94049
a34421d31dd79552d266515f6b0296a9f9af126d(2006) Tokio / puls 200 (Alternative Rock / Pop Rock) [FLAC (image+.cue) lossless] (2006) Tokio / puls 200 (Alternative Rock / Pop Rock) [FLAC (image+.cue) lossless] " />

Аплоадер: Админ, дата: 29-05-2010, 12:34, торрент скачан: 359 раз

Понравилась раздача? Посмотрите эти:
  • (1993) Coverdale & Page / Coverdale & Page (EMI Holland)(Hard Rock) [FLAC ( ...
  • (2000) a-ha / Minor Earth | Major Sky (Alternative Rock, Synth-pop ) [FLAC ...
  • (2002) a-ha / Lifelines (Alternative Rock, Synth-pop ) [FLAC (image + .cue ...
  • ТОКИО (TOKIO) / Я тебя люблю [2013, Pop, WebRip]
  • (2013) Pinnick Gales Pridgen / Pinnick Gales Pridgen (Hard Rock, Heavy Blue ...
  • (2010) Tokio Hotel / Best Of (2CD) (Pop-Rock) [MP3,192-320/CBR]
  • (2010) Мафик / Ангел (Шансон) [FLAC(image+cue), lossless]
  • (1999) Ennio Morricone / Romantic Collection (Classical) [FLAC (image+.cue) ...
  • (1988) James Last / Romantic Love Songs (Instrumental) [FLAC (image+.cue) l ...
  • (2010) БИ-2 / О чём говорят мужчины (Pop-Rock) [FLAC (image + .cue), lossle ...
  • (Дискография 2006 - 2011) Human Zoo (Melodic Hard Rock) [FLAC (image+.cue), ...
  • (2004) Genesis / Platinum Collection (Art Rock) [FLAC (image+.cue), lossles ...
  • (2012) The Rasmus / The Rasmus (Alternative Rock/Melodic Rock) [FLAC (track ...
  • (2012) The Blues Overdrive / The Blues Overdrive (Blues-Rock) [FLAC (image+ ...
  • (2010) Агата Кристи / Эпилог (Rock) [FLAC (tracks+.cue), lossless]
  • (2010) Tokio Hotel / Humanoid City Live (Pop Rock / Electropop) [mp3, ~239/ ...
  • Tokio Hotel / Humanoid City Live (2010. Pop, Rock, DVD5)
  • (Дискография) Tokio (Rock) [MP3, 320/CBR]
  • (2010) Несчастный случай / Тоннель в конце света (Rock) [FLAC(image +.cue)l ...
  • (2004) Ex-Сектор Газа / Огненный рай (Punk-Rock) [FLAC (image+.cue), lossle ...
  • Информация
    Посетители, находящиеся в группе Гости, не могут оставлять комментарии к данной публикации.