вход на сайт

Имя пользователя :
Пароль :

Восстановление пароля Регистрация
(2010) ПИKНИК / Театр Абсурда (Art-Rock) [FLAC (tracks+.cue), lossless]
Рейтинг:
(голосов: 1)



[img]{THEME}/images/logopost.png[/img]



Исполнитель: Пикник
Альбом: Театр Абсурда
Тип альбома: Студийный
Год выпуска: 2010
Жанр: Art-Rock
Формат: FLAC (tracks+.сue)
Битрейт: lossless
Продолжительность: 00:42:50

Tреклист:
[03:48] 01. Пикник - Театр абсурда
[03:55] 02. Пикник - Кукла с человеческим лицом
[03:51] 03. Пикник - Не В Опере Венской...
[05:06] 04. Пикник - Фетиш
[04:40] 05. Пикник - Карлик Нос
[03:41] 06. Пикник - Урим Туммим
[04:04] 07. Пикник - Русы Косы, Ноги Босы
[03:14] 08. Пикник - Уйду-Останусь
[05:18] 09. Пикник - Дикая Певица
[03:01] 10. Пикник - Начало Игры
[02:21] 11. Пикник - И Смоется Грим...

Отчет EAC:
▼Exact Audio Copy V0.99 prebeta 5 from 4. May 2009

EAC extraction logfile from 9. April 2010, 22:23

Пикник / Театр абсурда

Used drive: Optiarc DVD RW AD-7203A Adapter: 4ID: 0

Read mode : Secure
Utilize accurate stream : Yes
Defeat audio cache: Yes
Make use of C2 pointers : No

Read offset correction: 48
Overread into Lead-In and Lead-Out: No
Fill up missing offset samples with silence : Yes
Delete leading and trailing silent blocks : No
Null samples used in CRC calculations : Yes
Used interface: Native Win32 interface for Win NT & 2000
Gap handling: Appended to previous track

Used output format: User Defined Encoder
Selected bitrate: 768 kBit/s
Quality : High
Add ID3 tag : No
Command line compressor : C:Program FilesExact Audio CopyFlacflac.exe
Additional command line options : -8 -V -T "ARTIST=%a" -T "TITLE=%t" -T "ALBUM=%g" -T "DATE=%y" -T "TRACKNUMBER=%n" -T "GENRE=%m" -T "COMMENT=EAC FLAC -8" %s


TOC of the extracted CD

Track | Start|Length| Start sector | End sector
---------------------------------------------------------
1|0:00.00 |3:48.25 | 0|17124
2|3:48.25 |3:54.67 | 17125|34741
3|7:43.17 |3:50.74 | 34742|52065
4| 11:34.16 |5:06.04 | 52066|75019
5| 16:40.20 |4:39.65 |&
827596d4b91106bef72f8b4258721fe81d9a4865(2010) ПИKНИК / Театр Абсурда (Art-Rock) [FLAC (tracks+.cue), lossless] (2010) ПИKНИК / Театр Абсурда (Art-Rock) [FLAC (tracks+.cue), lossless] " />

Аплоадер: Админ, дата: 10-04-2010, 14:08, торрент скачан: 359 раз

Понравилась раздача? Посмотрите эти:
  • (2009) НОЧНЫЕ СНАЙПЕРЫ — Армия2009 (русский рок) [FLAC (lossless), tracks+. ...
  • (2009) ONE REPUBLIC / Waking Up (Pop-Rock/Alternative) [FLAC (tracks+.cue) ...
  • (2010)Scorpions/Sting In The Tail [FLAC (tracks+cue), lossless]
  • (2010) Deftones / Diamond Eyes (Nu metal / Alternative) [FLAC, (tracks+ cu ...
  • (2008) Pink / Funhouse (Pop) [FLAC (tracks) lossless]
  • (Дискография) GORILLAZ (Trip-Hop) [FLAC (tracks + .cue) lossless]
  • (2010) Eminem / Recovery (Rap / Hip-Hop) [FLAC (tracks+.cue) lossless]
  • (2010) Начало / Inception (by Hans Zimmer) (Score) [FLAC (tracks+.cue) loss ...
  • (2010) Michael Jackson - Michael (Pop) [FLAC, (tracks+.cue), lossless]
  • (2010) Нюша / Выбирать чудо (Pop) [FLAC(tracks+.cue), lossless]
  • (1986 [2010]) Пикник / Иероглиф (Полная история) (Rock) [WavPack (image+.cu ...
  • (2010) Ne-Yo / Libra Scale (Japanese Edition) (RnB) [FLAC (tracks+.cue) los ...
  • (2010) Rihanna / Loud (R&B) [FLAC (tracks+.cue), lossless]
  • (2003) DJ Zinc / Faster (DnB, Breaks) [ FLAC (tracks+.cue), lossless]
  • (2010) Пикник / Театр Абсурда [mp3, 320 kbps, CBR]
  • (2010) Morcheeba / Blood Like Lemonade ( Electronic, Downtempo, Pop, Trip-h ...
  • (2011) Electric Universe / Higher Modes (Psytrance, Full On) [FLAC (tracks+ ...
  • (2011) Ленинград / Хна (Rock) [FLAC (tracks+.cue), lossless]
  • (2012) The Cranberries / Roses (Alternative Rock / Pop-Rock) [FLAC (tracks+ ...
  • (2012) Оргия Праведников / Шитрок (Rock/Progressive Rock) [FLAC (tracks+cue ...
  • Информация
    Посетители, находящиеся в группе Гости, не могут оставлять комментарии к данной публикации.