вход на сайт

Имя пользователя :
Пароль :

Восстановление пароля Регистрация
(2006) Аквариум / Беспечный русский бродяга (Rock) [FLAC (image+.cue) lossless]
Рейтинг:
(голосов: 1)



[img]{THEME}/images/logopost.png[/img]



Исполнитель: Аквариум
Альбом: Беспечный русский бродяга
Тип альбома: Студийный (LP)
Год выпуска: 2006
Жанр: Rock
Формат: FLAC (image+.cue)
Битрейт: lossless
Продолжительность: 1:12:23

Tреклист:
1. Афанасий Никитин буги
(Хождение за три моря - 2) (6:21.17)
2. Шумелка (2:56.68)
3. О смысле всего сущего (2:45.27)
4. Духовные люди (0:47.58)
5. Мама, я не могу больше пить (2:59.67)
6. Voulez vous coucher Avec Moi? (2:44.28)
7. Стаканы (2:07.48)
8. Беспечный русский бродяга (4:50.65)
9. Голова Альфредо Гарсии (5:46.19)
10.День в доме дождя (5:17.51)
11.Ткачиха (6:33.06)
12.Гимн анахорету (1:09.72)
13.Дело за мной (3:36.00)
14.Многоточиеи (4:25.40)
15.Скорбец (4:45.57)
16.Достоевский (2:10.02)
17.Неизвестные факты из биографии Элвиса Пресли (2:32.00)
18.Интерлюдия (2:38.45)
19.Терапевт (5:54.38)

Отчет EAC:

Exact Audio Copy V0.99 prebeta 1 from 25. May 2007

EAC extraction logfile from 28. February 2010, 17:18

Аквариум / Беспечный Русский Бродяга

Used drive: Optiarc DVD RW AD-7200S Adapter: 2ID: 1

Read mode : Secure
Utilize accurate stream : Yes
Defeat audio cache: Yes
Make use of C2 pointers : No

Read offset correction: 48
Overread into Lead-In and Lead-Out: No
Fill up missing offset samples with silence : Yes
Delete leading and trailing silent blocks : No
Used interface: Native Win32 interface for Win NT & 2000

Used output format: User Defined Encoder
Selected bitrate: 160 kBit/s
Quality : High
Add ID3 tag : No
Command line compressor : C:Program FilesExact Audio CopyFlacflac.exe
Additional command line options : -8 -V %s


TOC of the extracted CD

Track | Start|Length| Start sector | End sector
---------------------------------------------------------
1|0:00.00 |6:21.17 | 0|28591
2|6:21.17 |2:56.68 | 28592|41859
3|9:18.10 |2:45.27 | 41860|54261
4| 12:03.37 |0:47.58 | 54262|57844
5| 12:51.20 |2:59.67 | 57845|71336
6| 15:51.12 |2:44.28
b7679922dcdcd8a489da8f582d72f626c40214ae(2006) Аквариум / Беспечный русский бродяга (Rock) [FLAC (image+.cue) lossless] (2006) Аквариум / Беспечный русский бродяга (Rock) [FLAC (image+.cue) lossless] " />

Аплоадер: Админ, дата: 28-02-2010, 18:02, торрент скачан: 359 раз

Понравилась раздача? Посмотрите эти:
  • (2009) НОЧНЫЕ СНАЙПЕРЫ — Армия2009 (русский рок) [FLAC (lossless), tracks+. ...
  • (2007) GORILLAZ / D-Sides [Japan Edition] (Hip-Hop) [FLAC (image+cue), loss ...
  • (2009) ONE REPUBLIC / Waking Up (Pop-Rock/Alternative) [FLAC (tracks+.cue) ...
  • (1977) Jethro Tull / Songs from the wood (Rock, Art-Rock) [FLAC (track+ cue ...
  • (2010)Scorpions/Sting In The Tail [FLAC (tracks+cue), lossless]
  • (2010) ПИKНИК / Театр Абсурда (Art-Rock) [FLAC (tracks+.cue), lossless]
  • (2010) Deftones / Diamond Eyes (Nu metal / Alternative) [FLAC, (tracks+ cu ...
  • (2008) Pink / Funhouse (Pop) [FLAC (tracks) lossless]
  • (2010) Сергей Трофимов (Трофим) / Всё не важно (Шансон) [FLAC(image+.cue), ...
  • (2010) Ассаи / Лифт (Rap) [FLAC(image+.cue), lossless]
  • (2010) A-HA / 25 (2 CD) (Pop) [FLAC (image + .cue)]
  • (2010) Michael Jackson - Michael (Pop) [FLAC, (tracks+.cue), lossless]
  • (Сборник, 1976-1982) Rockets / 6 Альбомов (Electro Rock/Pop Rock/Space Rock ...
  • (2012) Руставели / Начало света (Rap) [FLAC (image+.cue), lossless]
  • (2010) Rihanna / Loud (R&B) [FLAC (tracks+.cue), lossless]
  • (2003) DJ Zinc / Faster (DnB, Breaks) [ FLAC (tracks+.cue), lossless]
  • (1976) The Eagles / Hotel California [Japan Remastered] (Country Rock) [FLA ...
  • (2011) Linkin Park / Iridescent (Alternative Rock) [FLAC(image+.cue), lossl ...
  • (2009) Чиж & Co / Лучшее. Золотая коллекция (Rock) [FLAC (image+.cue), loss ...
  • (2011) Слот / F5 (Alternative Metal) [FLAC (image+.cue)lossless]
  • (2011) Ленинград / Хна (Rock) [FLAC (tracks+.cue), lossless]
  • (2012) The Cranberries / Roses (Alternative Rock / Pop-Rock) [FLAC (tracks+ ...
  • (2012) Fox / 2012 (Melodic Hard Rock) [FLAC (image +.cue), lossless]
  • (2012) Оргия Праведников / Шитрок (Rock/Progressive Rock) [FLAC (tracks+cue ...
  • (2012) Сплин / Обман зрения (Rock) [FLAC (image+.cue), lossless]
  • Информация
    Посетители, находящиеся в группе Гости, не могут оставлять комментарии к данной публикации.