вход на сайт

Имя пользователя :
Пароль :

Восстановление пароля Регистрация
(1999, сборник) VA / Romantic Collection(Pok) [FLAC (track+.cue) lossless]
Рейтинг:
(голосов: 1)



[img]{THEME}/images/logopost.png[/img]



Сборник
Название: Romantic Collection
Жанр: Pok
Год выпуска: 1999
Формат: FLAC (track+.cue)
Битрейт: lossless
Продолжительность: 01:12:22

Треклист:
[04:46] 01.Андрей Макаревич - Перекресток
[03:39] 02.Наутилиус Помпилиус - Прощальное Письмо
[05:04] 03.ДДТ - Дождь
[03:56] 04.Браво & Жанна Агузарова - Старый Отель
[04:58] 05.Гарик Сукачев - Ольга
[02:49] 06.Крематорий - Мусорный Ветер
[03:38] 07.Калинов Мост - Девочка Летом
[05:25] 08.Алиса - Театр Теней
[04:51] 09.Виктор Зинчук - Не Возвратить
[02:51] 10.Агата Кристи - Сказочная Тайга
[04:16] 11.Серьга - Страна Чудес
[04:29] 12.Настя - Всему Свое Время
[05:19] 13.Константин Никольский - Музыкант
[06:56] 14.Чиж & Co - Перекресток
[07:47] 15.Игорь Тальков - Россия
[01:33] 16.Андрей Макаревич - Кода (Пьеса Из К/Ф Перекресток)

Отчёт EAC:▼Exact Audio Copy V0.99 prebeta 5 from 4. May 2009

Отчёт EAC об извлечении, выполненном 7. октября 2009, 16:54

Varios Artists / Romantic Collection - Русский Рок

Дисковод: PIONEER DVD-RWDVR-216 Adapter: 2ID: 0

Режим чтения : Достоверность
Использование точного потока : Да
Отключение кэша аудио: Да
Использование указателей C2: Нет

Коррекция смещения при чтении : 96
Способность читать области Lead-in и Lead-out : Нет
Заполнение пропущенных сэмплов тишиной: Да
Удаление блоков с тишиной в начале и конце: Нет
При вычислениях CRC использовались нулевые сэмплы : Да
Интерфейс : Встроенный Win32-интерфейс для Win NT/2000

Выходной формат : Внутренние WAV-операции
Формат сэмплов: 44.100 Гц; 16 бит; стерео


TOC извлечённого CD

Трек | Старт| Длительность | Начальный сектор | Конечный сектор
---------------------------------------------------------------------
1|0:00.00 |4:46.60 | 0|21509
2|4:46.60 |3:39.08 | 21510|37942
3|8:25.68 |5:04.37 | 37943|60779
4| 13:30.30 |3:56.00 | 60780|78479
5| 17:26.30 |4:58.05 | 78480| 100834
6| 22:24.35 |&
39517d6fdaba9838133e296f66ed6085bc82ed45(1999, сборник) VA / Romantic Collection(Pok) [FLAC (track+.cue) lossless] (1999, сборник) VA / Romantic Collection(Pok) [FLAC (track+.cue) lossless] " />

Аплоадер: Админ, дата: 14-01-2010, 12:01, торрент скачан: 359 раз

Понравилась раздача? Посмотрите эти:
  • (2009) НОЧНЫЕ СНАЙПЕРЫ — Южный полюс (русский рок, сингл) [FLAC (lossless), ...
  • (1993) ЖАННА АГУЗАРОВА И «БРАВО» — Жанна Агузарова и «Браво» 1983—1988 (Roc ...
  • (1998) The Ventures & The Shadows / Grand Collection(Instrumental, Guit ...
  • (1999) Ennio Morricone / Romantic Collection (Classical) [FLAC (image+.cue) ...
  • (2008) ST / Сто из Ста (Rap) [FLAC(track+.cue), lossless]
  • (1994) Joy / Grand Collection (EuroDisco) [FLAC (image+.cue) lossless]
  • (1988) James Last / Romantic Love Songs (Instrumental) [FLAC (image+.cue) l ...
  • (2003) Joe Dassin / Grand Collection (PopMusic, Chanson) [FLAC (track+ cue) ...
  • (2002) Ирина Аллегрова / Grand Collection (Pop) [APE (image+.cue) lossless] ...
  • (2006) Батырхан Шукенов/ Отан Ана (Pop) [FLAC (image+.cue) lossless]
  • (2010) Loc-Dog / Паранойя (Rap) [FLAC (track+.cue), lossless]
  • (2011) Within Temptation / The Unforgiving (Symphonic Gothic Metal) [FLAC ( ...
  • (2004) Genesis / Platinum Collection (Art Rock) [FLAC (image+.cue), lossles ...
  • (2011) Blues Cousins / KGB Blues (Blues Rock) [FLAC (image+.cue), lossless] ...
  • ( 2001) Воскресение / Звездная коллекция (Rock) [FLAC (image+.cue) lossless ...
  • (2010) Агата Кристи / Эпилог (Rock) [FLAC (tracks+.cue), lossless]
  • (1988) Fausto Papetti / Grand Collection (POP, Jazz) [FLAC (image+.cue), lo ...
  • (1995) Yaki-Da / Pride (Pop, Eurodance) [FLAC (image+.сue), lossless]
  • (2004) Ex-Сектор Газа / Огненный рай (Punk-Rock) [FLAC (image+.cue), lossle ...
  • (2008) Студия 80 / Придуманный Мир (Pop) [FLAC (image+.cue), lossless]
  • Информация
    Посетители, находящиеся в группе Гости, не могут оставлять комментарии к данной публикации.