вход на сайт

Имя пользователя :
Пароль :

Восстановление пароля Регистрация
(2009) НОЧНЫЕ СНАЙПЕРЫ — Живаго в Лужниках (русский рок) [WAVPack (lossless), image+.cue]
Рейтинг:
(голосов: 1)



[img]{THEME}/images/logopost.png[/img]



Ночные снайперы — Живаго в Лужниках (2 CD) [lossless]

Страна: Россия
Жанр: русский рок
Год выпуска: 2009
Производитель: "Real Records"
Коврики: полностью включены, Jpg 3,5 Mpx, 400PPI

Формат: WAVPack (image+.cue)
Битрейт: lossless
Продолжительность: 02:13:18 (CD1: 01:10:46 / CD2: 01:02:32)

Описание: формально, это — аудиоверсия презентации альбома «Бонни&Клайд»

Треклист: CD1
01. Стань моей птицей...(3:40)
02. Кукуруза............(3:41)
03. Пароходы............(3:08)
04. Асфальт.............(4:11)
05. Питерская...........(4:11)
06. Гонщик..............(4:37)
07. Алмазный Британец...(3:18)
08. День рождения.......(3:15)
09. Ты город............(3:06)
10. Не ищу..............(5:33)
11. 9 12 Недель........(4:11)
12. Охота на волчат.....(3:17)
13. Столица.............(4:28)
14. Рулетка.............(3:00)
15. Редкая птица........(2:52)
16. Рубеж...............(4:05)
17. Цунами..............(2:38)
18. SMS.................(4:12)
19. Атлантида (Bonus)...(3:24)

LOG-File:
▼Exact Audio Copy V0.99 prebeta 4 from 23. January 2008
Отчёт EAC об извлечении, выполненном 13. мая 2009, 21:05
Ночные Снайперы / Живаго в Лужниках CD1
Дисковод: Optiarc DVD RW AD-7201A Adapter: 0ID: 0
Режим чтения : Достоверность
Использование точного потока : Да
Отключение кэша аудио: Да
Использование указателей C2: Нет
Коррекция смещения при чтении : 48
Способность читать области Lead-in и Lead-out : Нет
Заполнение пропущенных сэмплов тишиной: Да
Удаление блоков с тишиной в начале и конце: Нет
При вычислениях CRC использовались нулевые сэмплы : Да
Интерфейс : Установленный внешний ASPI-интерфейс
Выходной формат : Внутренние WAV-операции
Формат сэмплов: 44.100 Гц; 16 бит; стерео
TOC извлечённого CD
Трек | Старт| Длительность | Начальный сектор | Конечный сектор
---------------------------------------------------------------------
1|0:00.00 |3:39.45 | 0|16469
2|3:39.45 |3:40.40 | 16470|33009
3|7:20.10 |3:08.07 | 33010|47116
4| 10:28.17 |4:10.57 | 47117|65923
5| 14:38.74 |4:10.61 | 65924|84734
6| 18:49.60 |4:37.10 | 84735&
5bd6495902305249e129a7fa2f3ab2a200b47a70(2009) НОЧНЫЕ СНАЙПЕРЫ — Живаго в Лужниках (русский рок) [WAVPack (lossless), image+.cue] (2009) НОЧНЫЕ СНАЙПЕРЫ — Живаго в Лужниках (русский рок) [WAVPack (lossless), image+.cue] " />

Аплоадер: Админ, дата: 13-09-2009, 14:15, торрент скачан: 359 раз

Понравилась раздача? Посмотрите эти:
  • (1989, 1991, 1992, 1993) Nirvana — 4 альбома (Grunge) [WavPack (image+.cue) ...
  • (дискография, 1983-2008) MADONNA (pop / dance) [WavPack (image+.cue) lossle ...
  • (2009) НОЧНЫЕ СНАЙПЕРЫ — Южный полюс (русский рок, сингл) [FLAC (lossless), ...
  • (2009) СЕРГЕЙ НАГОВИЦЫН / The Best Of - 2009 (Шансон) [FLAC (image+.cue) lo ...
  • (2000) Tic Tac Toe / Ist der Ruf erst ruiniert... (Rap,Hip-hop) [Lossless, ...
  • (1994) Joy / Grand Collection (EuroDisco) [FLAC (image+.cue) lossless]
  • (2010) Баста / Баста 3 (Rap) [APE (image+.cue), lossless]
  • (2010) ST1M / Октябрь (Rap) [APE(image+.cue), lossless]
  • (2010) ДиДюЛя / Аромат (flamenco, instrumental, folk) [APE (image + .cue), ...
  • (1984) Boney M / Ten Thousand Lightyears (Disco) [APE (image+.cue) lossles ...
  • (2011) Within Temptation / The Unforgiving (Symphonic Gothic Metal) [FLAC ( ...
  • (2011) АлисА / 20.12 (Русский Рок) [WavPack (image+.cue), lossless]
  • (2003) THE BLACK EYED PEAS / Elephunk (RnB) [Ape (image+.cue), lossless]
  • (2009) Rihanna / Rated R (R`n`B) [APE (image+.cue)]
  • (2009) Guf / Дома (Rap) [APE (image+.cue)]
  • ( 2001) Воскресение / Звездная коллекция (Rock) [FLAC (image+.cue) lossless ...
  • (1993) Любовь Успенская / Любимый (шансон) [APE (image+.cue), lossless]
  • (2009) Челси / Точка возврата (Pop) [APE (image+.cue), lossless]
  • (2009, Cборник) Madonna / Greatest Hits [CD1 + CD2] (Pop) [APE (image+.cue) ...
  • (2008) Студия 80 / Придуманный Мир (Pop) [FLAC (image+.cue), lossless]
  • Информация
    Посетители, находящиеся в группе Гости, не могут оставлять комментарии к данной публикации.