вход на сайт

Имя пользователя :
Пароль :

Восстановление пароля Регистрация
(2009) НОЧНЫЕ СНАЙПЕРЫ — Южный полюс (русский рок, сингл) [FLAC (lossless), tracks+.cue]
Рейтинг:
(голосов: 1)



[img]{THEME}/images/logopost.png[/img]



Ночные снайперы — Южный полюс [lossless]

Страна: Россия
Жанр: русский рок, сингл
Год выпуска: 2009
Производитель: ПОБОЮЛ Слобцов В.В.

Формат: FLAC (tracks+.cue)
Битрейт: lossless
Продолжительность: 11:08

Треклист:
01. Южный Полюс...(4:43)
02. Атлантида.....(3:25)
03. Пока я бегу...(3:00)

LOG-File:
▼Exact Audio Copy V0.99 prebeta 4 from 23. January 2008

Отчёт EAC об извлечении, выполненном 3. мая 2009, 15:36

Ночные Снайперы / Южный Полюс

Дисковод: ATAPI DVD WDH16WZS Adapter: 3ID: 1

Режим чтения : Достоверность
Использование точного потока : Да
Отключение кэша аудио: Да
Использование указателей C2: Нет

Комбинированное смещение чтения/записи: 0
Способность читать области Lead-in и Lead-out : Нет
Заполнение пропущенных сэмплов тишиной: Да
Удаление блоков с тишиной в начале и конце: Нет
При вычислениях CRC использовались нулевые сэмплы : Нет
Интерфейс : Встроенный Win32-интерфейс для Win NT/2000

Выходной формат : Внутренние WAV-операции
Формат сэмплов: 44.100 Гц; 16 бит; стерео


TOC извлечённого CD

Трек | Старт| Длительность | Начальный сектор | Конечный сектор
---------------------------------------------------------------------
1|0:00.00 |4:43.12 | 0|21236
2|4:43.12 |3:25.30 | 21237|36641
3|8:08.42 |3:00.27 | 36642|50168


Характеристики диапазона извлечения и сообщения об ошибках

Выбранный диапазон

Имя файла C:UserspsyAfterDarkDesktopНочные Снайперы - Южный Полюс.wav

Пиковый уровень 100.0 %
Качество диапазона 100.0 %
CRC копии 0F6D1BCF
Копирование... OK

Ошибок не произошло

Конец отчёта
(Комбинированное смещение чтения/записи: 0;
При вычислениях CRC использовались нулевые сэмплы : Нет)

Воспроизводить foobar2000


Проверил U28 14.09.09


c608923a7df38099e5d077173fd4f68ec2ace529(2009) НОЧНЫЕ СНАЙПЕРЫ — Южный полюс (русский рок, сингл) [FLAC (lossless), tracks+.cue] (2009) НОЧНЫЕ СНАЙПЕРЫ — Южный полюс (русский рок, сингл) [FLAC (lossless), tracks+.cue] " />

Аплоадер: Админ, дата: 13-09-2009, 02:42, торрент скачан: 359 раз

Понравилась раздача? Посмотрите эти:
  • (2009) НОЧНЫЕ СНАЙПЕРЫ — Армия2009 (русский рок) [FLAC (lossless), tracks+. ...
  • (2009) НОЧНЫЕ СНАЙПЕРЫ — Живаго в Лужниках (русский рок) [WAVPack (lossless ...
  • (2001, сборник) VA - Одинокий пастух Vol.3 - Галерея инструментальной музык ...
  • (2002) Dschinghis Khan / Star Collection (2CD) (Disco) [APE (image+.cue), l ...
  • (1994) Joy / Grand Collection (EuroDisco) [FLAC (image+.cue) lossless]
  • (2006) Батырхан Шукенов/ Отан Ана (Pop) [FLAC (image+.cue) lossless]
  • (2010) Krec / Осколки (Rap) [FLAC (tracks+.cue), lossless]
  • (2011) Легенды Про / Желтый Дом (Rap) [FLAC (tracks+.cue), Lossless]
  • (2011) Within Temptation / The Unforgiving (Symphonic Gothic Metal) [FLAC ( ...
  • (2011) АлисА / 20.12 (Русский Рок) [WavPack (image+.cue), lossless]
  • (2011) Blues Cousins / KGB Blues (Blues Rock) [FLAC (image+.cue), lossless] ...
  • (2011) АукцЫон / Юла (Rock) [APE (image+.cue), lossless]
  • (Дискография, 1986 - 1999) Crimson Glory (Progressive Heavy Metal) [FLAC (i ...
  • (2009) Ночные снайперы / Армия2009 (Русский Рок) [MP3, 320CBR]
  • ( 2001) Воскресение / Звездная коллекция (Rock) [FLAC (image+.cue) lossless ...
  • (2010) Агата Кристи / Эпилог (Rock) [FLAC (tracks+.cue), lossless]
  • (2009) Земфира / Z-Sides (Rock) [FLAC(image+.cue), lossless ]
  • (2006) Би-2 / Лучшие песни (Rock) [FLAC (image+.cue), lossless]
  • (2010) 25/17 (Иезекииль 25:17, Ант, Бледный) / Зебра (Rap) [FLAC (tracks+.c ...
  • (2011) Ассаи / ОМ (Rap) [FLAC (tracks+.cue), lossless]
  • (1995) Юрий Шатунов / Ты помнишь... (Pop) [FLAC(image+.cue), lossless]
  • (2012) Влади (Каста) / Ясно! (Rap) [ FLAC (tracks+.cue), lossless]
  • (1995) Steve Morse Band / Structural Damage (Instrumental Rock/Blues Rock/J ...
  • (2004) Ex-Сектор Газа / Огненный рай (Punk-Rock) [FLAC (image+.cue), lossle ...
  • (2008) Студия 80 / Придуманный Мир (Pop) [FLAC (image+.cue), lossless]
  • Информация
    Посетители, находящиеся в группе Гости, не могут оставлять комментарии к данной публикации.