вход на сайт

Имя пользователя :
Пароль :

Восстановление пароля Регистрация
(Дискография) ДЕЛЬФИН (DOLPHIN) (Alternative) [WavPack/image+cue, lossless]
Рейтинг:
(голосов: 1)



[img]{THEME}/images/logopost.png[/img]



Дискография
Исполнитель: ДЕЛЬФИН (DOLPHIN), Дубовый Гаайъ, Мишины Дельфины
Жанр: Alternative
Формат: WavPack/image+cue
Битрейт: очень lossless
Тип битрейта: неактуально

Альбомы:

Дельфин:

1997 - Не В Фокусе


Год Выпуска: 1997
Продолжительность: 53,37
Треклист:

01. Дилер(3:52)
02. Если Просто (4:26)
03. Собачий Бой (4:15)
04. Война (3:36)
05. Дельфин (4:08)
06. Один На Один (Посвещается Андрею Литвинову) (3:14)
07. Ботинки (2:49)
08. Я Люблю Людей (3:35)
09. Вера (3:41)
10. Последнее Слово (1:46)

Отчет EAC
▼Exact Audio Copy V0.99 prebeta 4 from 23. January 2008

EAC extraction logfile from 15. October 2008, 10:53

Dolphin / Не в фокусе

Used drive: Optiarc DVD RW AD-7203S Adapter: 0ID: 0

Read mode : Secure
Utilize accurate stream : Yes
Defeat audio cache: Yes
Make use of C2 pointers : No

Read offset correction: 48
Overread into Lead-In and Lead-Out: No
Fill up missing offset samples with silence : Yes
Delete leading and trailing silent blocks : No
Null samples used in CRC calculations : Yes
Used interface: Native Win32 interface for Win NT & 2000

Used output format : Internal WAV Routines
Sample format: 44.100 Hz; 16 Bit; Stereo


TOC of the extracted CD

Track | Start|Length| Start sector | End sector
---------------------------------------------------------
1|0:00.10 |3:52.19 |10|17428
2|3:52.29 |4:25.40 | 17429|37343
3|8:17.69 |4:15.10 | 37344|56478
4| 12:33.04 |3:36.22 | 56479|72700
5| 16:09.26 |4:08.02 | 72701|91302
6| 20:17.28 |3:13.47 | 91303| 105824
7| 23:31.00 |2:49.06 |105825| 118505
8| 26:20.06 |3:34.67 |118506| 134622
9| 29:54.73 |3:40.44 |134623| 151166
10| 33:35.42 |1:45.72 |151167| 159113
&n
a77d5b24f21002ac0b07052999654fa8d3236694(Дискография) ДЕЛЬФИН (DOLPHIN) (Alternative) [WavPack/image+cue, lossless] (Дискография) ДЕЛЬФИН (DOLPHIN) (Alternative) [WavPack/image+cue, lossless] " />

Аплоадер: Админ, дата: 17-07-2009, 00:06, торрент скачан: 359 раз

Понравилась раздача? Посмотрите эти:
  • Булат Окуджава — Российские Барды — 2002, WAVPack (image+.cue), lossless
  • (Дискография) LUMEN (Punk Rock) [WavPack (image+.cue), lossless]
  • (2008) Ассаи / Фаталист (Rap) [Ape(image+.cue), lossless]
  • (2008) Капа и Картель / Гламурным (Rap) [Ape(image+ cue), lossless]
  • (Дискография) Anberlin (Alternative Rock) [WAVPack (image+.cue) lossless]
  • (2010) Алиса / Ъ (The Hard Sign) (Hard Rock) [WavPack (iso.wv (image+.cue)) ...
  • (2007) Константин Никольский / Иллюзии (Rock) [APE (image + .cue), lossless ...
  • (2003) Пикник / Говорит и показывает (Полная история) (Rock) [WavPack (imag ...
  • (2011) Вася Обломов / Повести и Рассказы (Стёб-Хоп Шансон) [WavPack (image+ ...
  • (2008) Юрий Наумов / Рок как будто Блюз (Blues) [FLAC (Image+.cue), lossles ...
  • (2010) 2Pac / Greatest Hits (Rap & Hip Hop) [APE (image+.cue), lossless]
  • Дельфин (Dolphin) / 26 клипов [DVDRip / TVRip]
  • (2011) Yanni / Truth Of Touch (New Age) [FLAC (image+ .cue),lossless]
  • (2011) Linkin Park / Iridescent (Alternative Rock) [FLAC(image+.cue), lossl ...
  • (2011) Стас Михайлов / Только ты (Шансон) [Flac(image+.cue)Lossless]
  • (2011) Дельфин (Dolphin) / Существо ч.1 (Alternative) [MP3, 320 kbps]
  • (2011) Слот / F5 (Alternative Metal) [FLAC (image+.cue)lossless]
  • (2011) Дельфин / Существо (Alternative|Experimental) [FLAC (tracks+.cue), l ...
  • (2004) Дельфин / Запись концерта 19.11.04 (Alternative|Experimental) [FLAC ...
  • (2012) Crippled Black Phoenix / (Mankind) The Crafty Ape (Alternative/Indie ...
  • Информация
    Посетители, находящиеся в группе Гости, не могут оставлять комментарии к данной публикации.