вход на сайт

Имя пользователя :
Пароль :

Восстановление пароля Регистрация
(2012) Владимир Кузьмин / Endorfin (Русский Рок) [FLAC (image+.cue), lossless]
Рейтинг:
(голосов: 1)



[img]{THEME}/images/logopost.png[/img]



Исполнитель: Владимир Кузьмин
Страна: Россия
Альбом: Endorfin
Тип альбома: Студийный
Год выпуска: 2012
Жанр: Русский Рок
Аудиокодек: Flac (*.flac)
Тип рипа: image+.cue
Битрейт: lossless
Продолжительность: 01:15:16


Tреклист:
01. Следы 1 (03:51)
02. Радость (04:18)
03. Сумасшедший (05:04)
04. Глаза (08:41)
05. Прекращаюсь (05:53)
06. Вина (05:25)
07. Дом (03:58)
08. Друзья (04:30)
09. Вернись (04:32)
10. Никто (05:12)
11. Самолет (04:05)
12. Джимми (04:49)
13. Мрак (04:18)
14. Нет Слез (03:11)
15. Следы 2 (07:23)

Лог проверки качества ▼TextX Lossless Decoder version 20121027 (142.1)

XLD extraction logfile from 2012-12-13 11:53:33 +0400

Владимир Кузьмин / Endorfin

Used drive : HL-DT-ST DVDRW GS23N (revision SB03)

Ripper mode : CDParanoia III 10.2
Disable audio cache : OK for the drive with a cache less than 2750KiB
Make use of C2 pointers : NO
Read offset correction : 667
Max retry count : 20
Gap status : Analyzed, Appended

TOC of the extracted CD
Track | Start | Length | Start sector | End sector
---------------------------------------------------------
1 | 00:00:00 | 03:51:28 | 0 | 17352
2 | 03:51:28 | 04:18:35 | 17353 | 36737
3 | 08:09:63 | 05:04:63 | 36738 | 59600
4 | 13:14:51 | 08:41:03 | 59601 | 98678
5 | 21:55:54 | 05:53:08 | 98679 | 125161
6 | 27:48:62 | 05:25:17 | 125162 | 149553
7 | 33:14:04 | 03:58:45 | 149554 | 167448
8 | 37:12:49 | 04:30:47 | 167449 | 187745
9 | 41:43:21 | 04:32:35 | 187746 | 208180
10 | 46:15:56 | 05:12:59 | 208181 | 231639
11 | 51:28:40 | 04:05:22 | 231640 | 250036
12 | 55:33:62 | 04:49:16 | 250037 | 271727
13 | 60:23:03 | 04:18:28 | 271728 | 291105
14 | 64:41:31 | 03:11:19 | 291106 | 305449
15 | 67:52:50 | 07:23:44 | 305450 | 338718

AccurateRip Summary
Disc not found in AccurateRip DB.

All Tracks
Statistics
Read error : 0
Skipped (treated as error) : 0
Edge jitter error (maybe fixed) : 0
Atom jitter error (maybe fixed) : 0
Drift error (maybe fixed) : 0
Dropped bytes error (maybe fixed) : 0
Duplicated bytes error (maybe fixed) : 0

Track 01
Filename : /Users/pavel/Music/В. Кузьмин - Endorfin (2012)/01 Владимир Кузьмин - Следы 1.flac
&nbs
fa70f6faed9dbea062d513c0d6305c5c459e939c(2012) Владимир Кузьмин / Endorfin (Русский Рок) [FLAC (image+.cue), lossless] (2012) Владимир Кузьмин / Endorfin (Русский Рок) [FLAC (image+.cue), lossless] " />

Аплоадер: Админ, дата: 12-02-2013, 18:18, торрент скачан: 359 раз

Понравилась раздача? Посмотрите эти:
  • (2013) Kanye West | Yeezus (Rap|Experimental Hip-Hop) [FLAC (tracks+.cue), ...
  • (2012) The Lumineers / The Lumineers (Indie-folk, Folk-rock) [FLAC (tracks+ ...
  • (2013) Paramore / Paramore (Japan Edition) (Alternative Rock) [FLAC (tracks ...
  • (2013) Bullet For My Valentine / Temper Temper (Japanese Deluxe Edition) (M ...
  • (2003) Vivaldi / Violin Concertos Yehudi Menuhin (2CD) (Камерная музыка) [F ...
  • (2010) Katie Melua / The House ( jazz-pop, vocal jazz) [FLAC (tracks + .cu ...
  • (1968) The Kinks / The Kinks Are the Village Green Preservation Society (Cl ...
  • (2011) Moby / Destroyed (Electronic, Downtempo, Ambient) [FLAC (tracks+.cue ...
  • (2010) Sungha Jung / Perfect Blue (Acoustic, Fingerstyle Guitar) [FLAC (tra ...
  • (2011) Sungha Jung / Irony (Acoustic guitar, Fingerstyle) [FLAC (tracks+.cu ...
  • (2012) Bruce Springsteen / Wrecking Ball (Folk Rock) [FLAC (tracks+.cue),l ...
  • (2012) Norah Jones / Little Broken Hearts (Vocal Jazz, Alternative Rock) [F ...
  • (2009) Paul Cardall / Sacred Piano (New Age) [FLAC (tracks+.cue), lossless] ...
  • (2012) Hans Zimmer / The Dark Knight Rises (Film score) [FLAC (tracks+.cu ...
  • (2012) Mouse On Mars / Parastrophics (Leftfield, Abstract, Rhythmic Noise, ...
  • (2012) Linkin Park / LP Underground 12 (Alternative Rock) [FLAC (tracks+.cu ...
  • (2012) Ne-Yo / R.E.D. (Target Exclusive Edition) (R&B, Soul, Pop) [FLAC (tr ...
  • (2010) Enduser / 1-3 (DnB, Dubstep, Breakcore) [FLAC (tracks+.cue), lossles ...
  • (2011) Metallica / Beyond Magnetic (Thrash Metal) [FLAC (image+.cue), lossl ...
  • (2012) Lana Del Rey / Born To Die (Indie Pop) [FLAC (tracks+.cue), lossless ...
  • (2012) The Fray / Scars & Stories (Alternative/Rock/Piano Rock) [FLAC (trac ...
  • (2012) Unheilig / Lichter der Stadt (Limited Edition, 2CD) (Industrial, Got ...
  • (2012) Young Guns / Bones (Alternative Rock) [FLAC (tracks +.cue), lossless ...
  • (2012) Switchfoot / Vice Re-Verses (Remixes) (Alternative, Christian Rock, ...
  • (2011) 7eventh Time Down / Alive In You (Alternative Rock/Modern Rock/Chris ...
  • Информация
    Посетители, находящиеся в группе Гости, не могут оставлять комментарии к данной публикации.