вход на сайт

Имя пользователя :
Пароль :

Восстановление пароля Регистрация
(2012) Линда & Stefanos / Acoustics by Bloody Faeries (Trip-Hop, Acoustic Rock) [FLAC (image+.cue), Lossless]
Рейтинг:
(голосов: 1)



[img]{THEME}/images/logopost.png[/img]



Исполнитель: Линда & Stefanos
Страна: Greece, Cyprus
Альбом: Acoustics by Bloody Faeries
Тип альбома: Студийный
Год выпуска: 2012
Жанр: Trip-Hop, Acoustic Rock
Страна (Издатель, Каталожный номер): Россия (Music Industries, МИ-CD 007/12)
Наличие сканов в раздаче: 300 dpi
Аудиокодек: FLAC (*.flac)
Тип рипа: image+.cue
Битрейт: lossless
Продолжительность: 00:49:23

Об исполнителе (об издании): Основа альбома Acoustics by Bloody Faeries это старые песни, исполненные в совершенно другой музыкальной форме. Линда об альбоме: Всё было записано на одном дыхании, в одной энергетике. Мы не резали по трекам, ничего не выбирали. Всё было сыграно с одного раза, и мы решили оставить каждую песню с той эмоцией, с которой она получилась. Помимо старых песен в альбом вошли и новые композиции.

Tреклист:
01. Ой-да 4:33
02. Круг от руки 3:12
03. Боль 4:36
04. Lieber tango 3:07
05. Леска 5:13
06. Пять минут 3:29
07. Маргарита 2:57
08. Lady Macbeth 3:36
09. Ворона 4:41
10. Скрябин prelude (ne me quite pas) 2:15
11. Марихуана (mama,mama) 3:17
12. Я украду 3:52
13. Bonus track ~ой-да 4:35

Лог создания рипа ▼TextExact Audio Copy V1.0 beta 3 from 29. August 2011

Отчёт EAC об извлечении, выполненном 3. августа 2013, 11:47

Линда & Stefanos / Acoustics by Bloody Faeries

Дисковод: ATAPI iHAS122 Adapter: 0 ID: 1

Режим чтения : Достоверность
Использование точного потока : Да
Отключение кэша аудио : Да
Использование указателей C2 : Нет

Коррекция смещения при чтении : 6
Способность читать области Lead-in и Lead-out : Нет
Заполнение пропущенных сэмплов тишиной : Да
Удаление блоков с тишиной в начале и конце : Нет
При вычислениях CRC использовались нулевые сэмплы : Да
Интерфейс : Встроенный Win32-интерфейс для Win NT/2000

Выходной формат : Пользовательский кодировщик
Выбранный битрейт : 128 kBit/s
Качество : Высокий
Добавление ID3-тега : Нет
Утилита сжатия : C:Program Files (x86)FLACflac.exe
Дополнительные параметры : -V -8 -T "Date=%year%" -T "Genre=%genre%" %source%


TOC извлечённого CD

Трек | Старт | Длительность | Начальный сектор | Конечный сектор
---------------------------------------------------------------------
1 | 0:00.00 | 4:32.73 | 0 | 20472
2 | 4:32.73 | 3:11.38 | 20473 | 34835
3 | 7:44.36 | 4:35.57 | 34836 | 55517
4 | 12:20.18 | 3:06.39 | 55518 | 69506
5 | 15:26.57 | 5:13.32 | 69507 | 93013
6 | 20:40.14 | 3:29.08 | 93014 |  
3b8e4e779d9eeb4136922fbc00c22ba7ddf73867(2012) Линда & Stefanos / Acoustics by Bloody Faeries (Trip-Hop, Acoustic Rock) [FLAC (image+.cue), Lossless] (2012) Линда & Stefanos / Acoustics by Bloody Faeries (Trip-Hop, Acoustic Rock) [FLAC (image+.cue), Lossless] " />

Аплоадер: Админ, дата: 3-08-2013, 12:33, торрент скачан: 359 раз

Понравилась раздача? Посмотрите эти:
  • (1993) Coverdale & Page / Coverdale & Page (EMI Holland)(Hard Rock) [FLAC ( ...
  • (2000) a-ha / Minor Earth | Major Sky (Alternative Rock, Synth-pop ) [FLAC ...
  • (2013) Al Di Meola / All Your Life (Fusion) [FLAC (image+.cue), lossless]
  • (2012) Sting / Fifteen Healing Bites (Pop Rock)(Chinese Dragon) [FLAC (trac ...
  • (2013) Смоки Мо / Младший (Rap, Hip-Hop) [FLAC (Tracks+.Cue), Lossless]
  • (2013) МакSим (Максим) / Другая реальность (Рор) [FLAC (image+.cue), lossle ...
  • (2013) Mike Tramp / Cobblestone Street (Classic Rock) [FLAC (image+.cue), l ...
  • (2013) Loc-Dog & Tony VA / Все знают всё (Rap, Hip-Hop) [FLAC (Tracks+.Cue ...
  • (2013) Pinnick Gales Pridgen / Pinnick Gales Pridgen (Hard Rock, Heavy Blue ...
  • (2013) Krokus / Dirty Dynamite (Hard Rock) [FLAC (image+.cue), lossless]
  • (2012) Рем Дигга / Черника (Rap) [FLAC (tracks+.cue), lossless]
  • (2010) БИ-2 / О чём говорят мужчины (Pop-Rock) [FLAC (image + .cue), lossle ...
  • (2011) ДДТ / Иначе/P.S. (Русский Рок) [FLAC(image+.cue), lossless]
  • (2012) The Blues Overdrive / The Blues Overdrive (Blues-Rock) [FLAC (image+ ...
  • (Дискография, 2006-2012) Shym (French Pop, Dance, R&B, Soul) [FLAC (image+. ...
  • (1995) The Gary Tesca Orchestra / Amor amor - The Julio Iglesias Story (Pop ...
  • (2012) Триада / Мои глаза открыты (Rap) [FLAC (tracks+.cue), lossless]
  • (2012) KREC / Молча проще (Rap) [FLAC (tracks+.cue), lossless]
  • (2012) Ария / Live In Studio (Heavy Metal) [FLAC (image+.сue), lossless]
  • (2012) Walter Trout / Blues For The Modern Daze (Blues, Blues Rock) [FLAC ( ...
  • Информация
    Посетители, находящиеся в группе Гости, не могут оставлять комментарии к данной публикации.