вход на сайт

Имя пользователя :
Пароль :

Восстановление пароля Регистрация
(1997) Моральный кодекс / Я выбираю тебя (подарочное издание 2007) (Pop-Rock) [FLAC (tracks+.cue), lossless]
Рейтинг:
(голосов: 1)



[img]{THEME}/images/logopost.png[/img]



Исполнитель: Моральный кодекс
Альбом: Я выбираю тебя (подарочное издание 2007)
Тип альбома: Студийный
Год выпуска: 2007
Жанр: Pop-Rock
Год первоначального издания альбома: 1997
Страна (Издатель, Каталожный номер): PФ (Мазай коммуникейшенс, CD970703-01)
Аудиокодек: FLAC (*.flac)
Тип рипа: image+.cue
Битрейт: lossless
Продолжительность: 01:56:19

Третий альбом «Морального кодекса», укрепивший за ними репутацию элитарной московской клубной рок-группы. Альбом создан в характерной для «кодекса» рок-ролльной эстетике: музыканты соединили в нем проникновенные тексты и эмоциональную биг-битовую музыку, расцветив мелодии партиями на саксофоне и бубне

Tреклист:
01. я выбираю тебя- 5:09
02. мне хорошо с тобой- 5:03
03. ночной каприз- 5:04
04. чужой сон- 3:09
05. поговори- 5:41
06. одиночество- 6:25
07. любовь моя- 4:30
08. моя надежда- 4:43
09. я не хочу твоей любви- 4:47
10. бетонная печаль- 3:59
11. ты далеко- 5:00
12. потерянный рай- 2:48

Лог создания рипа ▼TextExact Audio Copy V0.99 prebeta 5 from 4. May 2009

EAC extraction logfile from 15. September 2010, 19:15

Моральный кодекс / Я выбираю тебя

Used drive : PIONEER DVD-RW DVR-212 Adapter: 8 ID: 0

Read mode : Secure
Utilize accurate stream : Yes
Defeat audio cache : Yes
Make use of C2 pointers : No

Read offset correction : 48
Overread into Lead-In and Lead-Out : No
Fill up missing offset samples with silence : Yes
Delete leading and trailing silent blocks : No
Null samples used in CRC calculations : Yes
Used interface : Installed external ASPI interface

Used output format : Internal WAV Routines
Sample format : 44.100 Hz; 16 Bit; Stereo


TOC of the extracted CD

Track | Start | Length | Start sector | End sector
---------------------------------------------------------
1 | 0:00.00 | 5:09.33 | 0 | 23207
2 | 5:09.33 | 5:03.15 | 23208 | 45947
3 | 10:12.48 | 5:03.55 | 45948 | 68727
4 | 15:16.28 | 3:09.35 | 68728 | 82937
5 | 18:25.63 | 5:41.07 | 82938 | 108519
6 | 24:06.70 | 6:24.43 | 108520 | 137362
7 | 30:31.38 | 4:30.27 | 137363 | 157639
8 | 35:01.65 | 4:43.30 | 157640 | 178894
9 | 39:45.20 | 4:47.23 | 178895 | 200442
10 | 44:32.43 | 3:58.40 | 200443 | 218332
11 | 48:31.08 | 5:00
c335d73fb9c74657fbdb69751e2929f0c588d05b(1997) Моральный кодекс / Я выбираю тебя (подарочное издание 2007) (Pop-Rock) [FLAC (tracks+.cue), lossless] (1997) Моральный кодекс / Я выбираю тебя (подарочное издание 2007) (Pop-Rock) [FLAC (tracks+.cue), lossless] " />

Аплоадер: Админ, дата: 13-01-2014, 16:26, торрент скачан: 359 раз

Понравилась раздача? Посмотрите эти:
  • (1993) Mick Jagger / Wandring Spirit (Rock) [FLAC(image+.cue), lossless]
  • (1996) George Michael / Older (1st Press Japan) (Electronic, Pop/Rock) [FLA ...
  • (2013) Мумий Тролль / SOS Матросу - 2013, (Rock) [FLAC (image+.cue), lossle ...
  • (2009) ONE REPUBLIC / Waking Up (Pop-Rock/Alternative) [FLAC (tracks+.cue) ...
  • (2010)Scorpions/Sting In The Tail [FLAC (tracks+cue), lossless]
  • (2010) ПИKНИК / Театр Абсурда (Art-Rock) [FLAC (tracks+.cue), lossless]
  • (2008) Pink / Funhouse (Pop) [FLAC (tracks) lossless]
  • (2010) Ассаи / Лифт (Rap) [FLAC(image+.cue), lossless]
  • (2010) Баста и Гуф / Баста / Гуф (Rap) [FLAC (tracks+.cue) lossless]
  • (2010) Нюша / Выбирать чудо (Pop) [FLAC(tracks+.cue), lossless]
  • (2007) Константин Никольский / Иллюзии (Rock) [APE (image + .cue), lossless ...
  • (2001) Bloodthorn / Under the Reign of Terror (Black/Death Metal) [Flac(tra ...
  • (2008) Юрий Наумов / Рок как будто Блюз (Blues) [FLAC (Image+.cue), lossles ...
  • (2010) Ravenna / Debrief (Alt. Rock / Christian Rock / Indie) [FLAC (tracks ...
  • (2012) Сергей Васюта и Сладкий Сон / На белом покрывале января... (Pop) [Fl ...
  • (2004) Игорь Малинин / От Штирлица до Путина (Pop) [FLAC (image+.cue), los ...
  • (2012, сборник) VA | Горячая 20. Осень-Зима 2012-13 (Pop) [FLAC (image+.cue ...
  • (2006) The Rasmus / Shot (Single) (Alternative Rock) [FLAC (tracks+.cue), l ...
  • (1993) Крис Кельми / Greatest Hits (Pop-Rock) [FLAC (image+.cue), lossless] ...
  • (2010) Кукрыниксы / Всадники Света (Punk Rock) [FLAC (tracks+.cue), lossles ...
  • (2011) Стас Михайлов / Только ты (Шансон) [Flac(image+.cue)Lossless]
  • (2010) БИ-2 / БИ-2 и Симфонический Оркестр МВД России (Подарочное издание, ...
  • (2011) Ленинград / Хна (Rock) [FLAC (tracks+.cue), lossless]
  • (2012) The Cranberries / Roses (Alternative Rock / Pop-Rock) [FLAC (tracks+ ...
  • (2012) Оргия Праведников / Шитрок (Rock/Progressive Rock) [FLAC (tracks+cue ...
  • Информация
    Посетители, находящиеся в группе Гости, не могут оставлять комментарии к данной публикации.