вход на сайт

Имя пользователя :
Пароль :

Восстановление пароля Регистрация
(2009) Воскресение / The Best (Rock ) [APE (image + .cue), lossless]
Рейтинг:
(голосов: 1)



[img]{THEME}/images/logopost.png[/img]



Исполнитель: Воскресение
Альбом: The Best
Тип альбома: Compilation
Год выпуска: 2009
Страна (Издатель, Каталожный номер): Россия (Союз)
Аудиокодек: APE (*.ape)
Тип рипа: image+.cue
Битрейт: lossless
Продолжительность: 01:16:02
Источник: http://rutracker.org/forum/viewtopic.php?t=2296827

Tреклист:

01. кто виноват?- 4:13
02. поезд- 2:59
03. есть у меня- 2:55
04. случилось- 4:07
05. сон- 4:51
06. по дороге разочарований- 4:45
07. ветер (дыхание доброго неба)- 3:35
08. все сначала- 3:40
09. баба- 3:46
10. сотворю тебе мир- 4:07
11. спешит моя радость- 4:17
12. мне говорили (жизнь - это пятна)- 3:14
13. дело дрянь- 5:35
14. не оставь меня- 4:19
15. листопад- 3:56
16. не торопясь- 4:37
17. я ни разу за морем не был- 3:46
18. я привык бродить один- 4:08
19. делай свое дело- 3:12

Лог создания рипа ▼Textexact audio copy v0.99 prebeta 5 from 4. may 2009

отчёт eac об извлечении, выполненном 8. октября 2009, 15:35

воскресение / the best (золотая коллекция союз gold)

дисковод: hl-dt-stdvd-ram gh22ns30 adapter: 3 id: 0

режим чтения : достоверность
использование точного потока : да
отключение кэша аудио : да
использование указателей c2 : нет

коррекция смещения при чтении : 102
способность читать области lead-in и lead-out : нет
заполнение пропущенных сэмплов тишиной : да
удаление блоков с тишиной в начале и конце : нет
при вычислениях crc использовались нулевые сэмплы : да
интерфейс : установленный внешний aspi-интерфейс

выходной формат : внутренние wav-операции
формат сэмплов : 44.100 гц; 16 бит; стерео


toc извлечённого cd

трек | старт | длительность | начальный сектор | конечный сектор
---------------------------------------------------------------------
1 | 0:00.00 | 4:13.29 | 0 | 19003
2 | 4:13.29 | 2:59.02 | 19004 | 32430
3 | 7:12.31 | 2:54.69 | 32431 | 45549
4 | 10:07.25 | 4:06.40 | 45550 | 64039
5 | 14:13.65 | 4:50.74 | 64040 | 85863
6 | 19:04.64 | 4:44.58 | 85864 | 107221
7 | 23:49.47 | 3:35.10 | 107222 | 123
0682859272c66e26eb8051ad0616fac844a75b9d(2009) Воскресение / The Best (Rock ) [APE (image + .cue), lossless] (2009) Воскресение / The Best (Rock ) [APE (image + .cue), lossless] " />

Аплоадер: Админ, дата: 30-12-2013, 18:24, торрент скачан: 359 раз

Понравилась раздача? Посмотрите эти:
  • (2000) Lenny Kravitz / Greatest Hits (Rock, Funk) [FLAC (image+.cue), lossl ...
  • (1992) Smokie / The Story Of Smokie (2CD Set Germany, BMG, Ariola) (Rock) [ ...
  • (1993) Coverdale & Page / Coverdale & Page (EMI Holland)(Hard Rock) [FLAC ( ...
  • (2002) a-ha / Lifelines (Alternative Rock, Synth-pop ) [FLAC (image + .cue ...
  • (2012) Григорий Лепс / Полный вперёд (Шансон) [FLAC (image+.cue), Lossless ...
  • (2000) Tic Tac Toe / Ist der Ruf erst ruiniert... (Rap,Hip-hop) [Lossless, ...
  • (2010) Баста / Баста 3 (Rap) [APE (image+.cue), lossless]
  • (2010) ST1M / Октябрь (Rap) [APE(image+.cue), lossless]
  • (2010) ДиДюЛя / Аромат (flamenco, instrumental, folk) [APE (image + .cue), ...
  • (2001, сборник) VA / Легенды русского рока - The Best (Rock) [APE (image+.с ...
  • (2011) Blues Cousins / KGB Blues (Blues Rock) [FLAC (image+.cue), lossless] ...
  • (2011) АукцЫон / Юла (Rock) [APE (image+.cue), lossless]
  • (1989) Motley Crue / Dr. Feelgood (Hard Rock, Heavy metal, Glam metal) [APE ...
  • (2003) THE BLACK EYED PEAS / Elephunk (RnB) [Ape (image+.cue), lossless]
  • (2009) Rihanna / Rated R (R`n`B) [APE (image+.cue)]
  • (2009) Guf / Дома (Rap) [APE (image+.cue)]
  • (2009) Воскресение / The Best (Золотая коллекция Союз Gold) (Русский рок) ...
  • ( 2001) Воскресение / Звездная коллекция (Rock) [FLAC (image+.cue) lossless ...
  • (2009) Челси / Точка возврата (Pop) [APE (image+.cue), lossless]
  • (2009, Cборник) Madonna / Greatest Hits [CD1 + CD2] (Pop) [APE (image+.cue) ...
  • (2011) N1NT3NDO / N1NT3NDO (Rap) [APE (image+.сue), lossless]
  • (2011) КняZz / Письмо из Трансильвании (Punk-Rock) [APE (image+.сue), lossl ...
  • (2000) Парк Горького (Gorky Park) / The Best (Glam Metal/Hard Rock) [FLAC ...
  • (2004) Ex-Сектор Газа / Огненный рай (Punk-Rock) [FLAC (image+.cue), lossle ...
  • (2008) Студия 80 / Придуманный Мир (Pop) [FLAC (image+.cue), lossless]
  • Информация
    Посетители, находящиеся в группе Гости, не могут оставлять комментарии к данной публикации.