вход на сайт

Имя пользователя :
Пароль :

Восстановление пароля Регистрация
(2012) Сплин / Обман зрения (Rock) [FLAC (image+.cue), lossless]
Рейтинг:
(голосов: 1)



[img]{THEME}/images/logopost.png[/img]



Исполнитель: Сплин
Страна: Россия
Альбом: Обман зрения
Тип альбома: Студийный
Год выпуска: 2012
Жанр: Rock
Аудиокодек: FLAC
Тип рипа: image+.cue
Битрейт: lossless
Продолжительность: 00:42:16

Tреклист:
01. Увертюра (01:43)
02. Летела жизнь (02:30)
03. Черная волга (02:46)
04. Лестница (02:18)
05. Страшная тайна (02:24)
06. Петербургская свадьба (04:20)
07. Дочь самурая (03:36)
08. Фибоначчи (03:27)
09. В мире иллюзий (02:58)
10. Праздник (Другая точка зрения) (02:39)
11. Ковш (03:00)
12. Солнце взойдет (03:35)
13. Чудак (02:29)
14. Волшебное слово (04:24)
Отчет"EAC" ▼TextExact Audio Copy V1.0 beta 3 from 29. August 2011

EAC extraction logfile from 9. October 2012, 21:32

Сплин / Обман зрения

Used drive : Optiarc DVD RW AD-7203S Adapter: 5 ID: 0

Read mode : Secure
Utilize accurate stream : Yes
Defeat audio cache : Yes
Make use of C2 pointers : No

Read offset correction : 48
Overread into Lead-In and Lead-Out : No
Fill up missing offset samples with silence : Yes
Delete leading and trailing silent blocks : No
Null samples used in CRC calculations : Yes
Used interface : Native Win32 interface for Win NT & 2000

Used output format : User Defined Encoder
Selected bitrate : 1024 kBit/s
Quality : High
Add ID3 tag : No
Command line compressor : C:Program Files (x86)Exact Audio Copywavpack.exe
Additional command line options : -hlmx2 %source% %dest%


TOC of the extracted CD

Track | Start | Length | Start sector | End sector
---------------------------------------------------------
1 | 0:00.00 | 1:43.74 | 0 | 7798
2 | 1:43.74 | 2:30.39 | 7799 | 19087
3 | 4:14.38 | 2:46.46 | 19088 | 31583
4 | 7:01.09 | 2:18.50 | 31584 | 41983
5 | 9:19.59 | 2:24.17 | 41984 | 52800
6 | 11:44.01 | 4:20.16 | 52801 | 72316
7 | 16:04.17 | 3:36.45 | 72317 | 88561
8 | 19:40.62 | 3:27.63 | 88562 | 104149
9 | 23:08.50 | 2:58.50 | 104150 | 117549
10 | 26:07.25 | 2:39.71 | 117550 | 129545
11 | 28:47.21 | 3:00.74 | 129546 | 143119
12 | 31:48.20 | 3:35.03 | 143120 | 159247
13 | 35:23.23 |&nbs
983606c2527bce199eb1ffdc3d3b0a44f64223f3(2012) Сплин / Обман зрения (Rock) [FLAC (image+.cue), lossless] (2012) Сплин / Обман зрения (Rock) [FLAC (image+.cue), lossless] " />

Аплоадер: Админ, дата: 13-10-2012, 12:42, торрент скачан: 359 раз

Понравилась раздача? Посмотрите эти:
  • (2013) Paul McCartney / New (Deluxe Edition) (Rock) [FLAC (image,+.cue), lo ...
  • (2007) GORILLAZ / D-Sides [Japan Edition] (Hip-Hop) [FLAC (image+cue), loss ...
  • (2009) ONE REPUBLIC / Waking Up (Pop-Rock/Alternative) [FLAC (tracks+.cue) ...
  • (1977) Jethro Tull / Songs from the wood (Rock, Art-Rock) [FLAC (track+ cue ...
  • (2006) Аквариум / Беспечный русский бродяга (Rock) [FLAC (image+.cue) lossl ...
  • (2010)Scorpions/Sting In The Tail [FLAC (tracks+cue), lossless]
  • (2010) Сергей Трофимов (Трофим) / Всё не важно (Шансон) [FLAC(image+.cue), ...
  • (2010) Ассаи / Лифт (Rap) [FLAC(image+.cue), lossless]
  • (Сборник, 1976-1982) Rockets / 6 Альбомов (Electro Rock/Pop Rock/Space Rock ...
  • (2012) Uriah Heep / Logical Revelations (Hard Rock) [FLAC (image +.cue), lo ...
  • (2012) Son Of A Bad Man / Heres To The Falling In... (Alt.Rock) [FLAC (trac ...
  • (2012) Bryan Adams / 1983-Cuts Like a Knife (Rock) [FLAC (image+.cue), loss ...
  • (1976) The Eagles / Hotel California [Japan Remastered] (Country Rock) [FLA ...
  • (2011) Linkin Park / Iridescent (Alternative Rock) [FLAC(image+.cue), lossl ...
  • (2009) Чиж & Co / Лучшее. Золотая коллекция (Rock) [FLAC (image+.cue), loss ...
  • (2011) Слот / F5 (Alternative Metal) [FLAC (image+.cue)lossless]
  • (2011) Слот / Break The Code (Alternative Metal) [FLAC (image+.cue)lossless ...
  • (2012) The Cranberries / Roses (Alternative Rock / Pop-Rock) [FLAC (tracks+ ...
  • (2012) Fox / 2012 (Melodic Hard Rock) [FLAC (image +.cue), lossless]
  • (2012) Оргия Праведников / Шитрок (Rock/Progressive Rock) [FLAC (tracks+cue ...
  • Информация
    Посетители, находящиеся в группе Гости, не могут оставлять комментарии к данной публикации.