вход на сайт

Имя пользователя :
Пароль :

Восстановление пароля Регистрация
(2000) Парк Горького (Gorky Park) / The Best (Glam Metal/Hard Rock) [FLAC (image+cue), lossless]
Рейтинг:
(голосов: 1)



[img]{THEME}/images/logopost.png[/img]





Альбом: The Best
Тип альбома: Compilation
Год выпуска: 2000
Страна: СССР
Жанр: Glam Metal/Hard Rock
Формат: FLAC (image+cue)
Тип битрейта: lossless
Log-файл: Присутствует
Продолжительность: 01:19:07



01.Stare(04:59)
02.Bang(04:51)
03.Moscow calling(05:11)
04.All roads(05:12)
05.Ocean(03:56)
06.Tomorrow(05:57)
07.Wanna bee(04:22)
08.Jenny Loses me(03:42)
09.Two candles(05:03)
10.For all we can say(04:42)
11.Welkome to the Gorky park(04:23)
12.Stranger(04:52)
13.California promices(03:58)
14.Scared(05:49)
15.Peace in our time(06:00)
16.My Generation(04:49)
17.Volga Boatman (instrumental)(01:15)Лог создания рипа ▼
Exact Audio Copy V0.99 prebeta 5 from 4. May 2009

Отчёт EAC об извлечении, выполненном 14. февраля 2010, 17:32

Gorky Park / The Best

Дисковод: ASUSDRW-1814BL Adapter: 1ID: 0

Режим чтения : Достоверность
Использование точного потока : Да
Отключение кэша аудио: Да
Использование указателей C2: Нет

Коррекция смещения при чтении : 6
Способность читать области Lead-in и Lead-out : Нет
Заполнение пропущенных сэмплов тишиной: Да
Удаление блоков с тишиной в начале и конце: Нет
При вычислениях CRC использовались нулевые сэмплы : Да
Интерфейс : Встроенный Win32-интерфейс для Win NT/2000

Выходной формат : Внутренние WAV-операции
Формат сэмплов: 44.100 Гц; 16 бит; стерео


TOC извлечённого CD

Трек | Старт| Длительность | Начальный сектор | Конечный сектор
---------------------------------------------------------------------
1|0:00.00 |4:59.36 | 0|22460
2|4:59.36 |4:51.02 | 22461|44287
3|9:50.38 |5:11.60 | 44288|67672
4| 15:02.23 |5:12.07 | 67673|91079
5| 20:14.30 |3:56.25 |&
69aa18c131f0bfd9d09f1ce292551711891d2aa0(2000) Парк Горького (Gorky Park) / The Best (Glam Metal/Hard Rock) [FLAC (image+cue), lossless] (2000) Парк Горького (Gorky Park) / The Best (Glam Metal/Hard Rock) [FLAC (image+cue), lossless] " />

Аплоадер: Админ, дата: 12-05-2012, 11:43, торрент скачан: 359 раз

Понравилась раздача? Посмотрите эти:
  • (2000) Lenny Kravitz / Greatest Hits (Rock, Funk) [FLAC (image+.cue), lossl ...
  • (1993) Coverdale & Page / Coverdale & Page (EMI Holland)(Hard Rock) [FLAC ( ...
  • (2002) a-ha / Lifelines (Alternative Rock, Synth-pop ) [FLAC (image + .cue ...
  • (2013) Krokus / Dirty Dynamite (Hard Rock) [FLAC (image+.cue), lossless]
  • (1989 - 1998) Парк Горького / Gorky Park 4 альбома (Русский рок) [MP3 192 К ...
  • (Дискография) Парк Горького (Gorky Park) Полная дискография (Hard Rock) [MP ...
  • (2006) Батырхан Шукенов/ Отан Ана (Pop) [FLAC (image+.cue) lossless]
  • (2011) Within Temptation / The Unforgiving (Symphonic Gothic Metal) [FLAC ( ...
  • (2004) Genesis / Platinum Collection (Art Rock) [FLAC (image+.cue), lossles ...
  • (2011) Blues Cousins / KGB Blues (Blues Rock) [FLAC (image+.cue), lossless] ...
  • (2011) АукцЫон / Юла (Rock) [APE (image+.cue), lossless]
  • (Дискография, 1977-1980) Fandango (R&B, Melodic Hard Rock, Electric Pop Roc ...
  • (1989) Motley Crue / Dr. Feelgood (Hard Rock, Heavy metal, Glam metal) [APE ...
  • (2006) УЛЫТАУ / ULYTAU - Жумыр-Кылыш / Jumyr-Kylysh (ethnic / folk metal / ...
  • ( 2001) Воскресение / Звездная коллекция (Rock) [FLAC (image+.cue) lossless ...
  • (1995) Yaki-Da / Pride (Pop, Eurodance) [FLAC (image+.сue), lossless]
  • (2012) Paradise Lost / Tragic Idol (Limited Edition) (Gothic Rock, Metal) [ ...
  • (2011) Paradise Lost / Draconian Times MMXI (Limited Edition) (Gothic Rock, ...
  • (2004) Ex-Сектор Газа / Огненный рай (Punk-Rock) [FLAC (image+.cue), lossle ...
  • (2008) Студия 80 / Придуманный Мир (Pop) [FLAC (image+.cue), lossless]
  • Информация
    Посетители, находящиеся в группе Гости, не могут оставлять комментарии к данной публикации.