вход на сайт

Имя пользователя :
Пароль :

Восстановление пароля Регистрация
(2012) Оргия Праведников / Шитрок (Rock/Progressive Rock) [FLAC (tracks+cue), lossless]
Рейтинг:
(голосов: 1)



[img]{THEME}/images/logopost.png[/img]






Исполнитель: Оргия Праведников
Альбом: Шитрок
Тип альбома: Single
Год выпуска: 2012
Страна: Россия
Жанр: Rock/Progressive Rock
Формат: FLAC (tracks+cue)
Тип битрейта: lossless
Log-файл: Присутствует
Продолжительность: 00:21:09



01.Шитрок(03:42)
02.Черная земля(03:20)
03.Наша Родина - СССР(03:52)
04.Королевская свадьба(10:14)

Внимание! Раздача ведётся с Билайна

Лог создания рипа ▼
Exact Audio Copy V0.99 prebeta 5 from 4. May 2009

EAC extraction logfile from 5. February 2012, 16:57

Оргия Праведников / Шитрок

Used drive: SONYCD-RWCRX320E Adapter: 1ID: 1

Read mode : Secure
Utilize accurate stream : Yes
Defeat audio cache: Yes
Make use of C2 pointers : No

Read offset correction: 6
Overread into Lead-In and Lead-Out: No
Fill up missing offset samples with silence : Yes
Delete leading and trailing silent blocks : No
Null samples used in CRC calculations : Yes
Used interface: Native Win32 interface for Win NT & 2000
Gap handling: Appended to previous track

Used output format: User Defined Encoder
Selected bitrate: 768 kBit/s
Quality : High
Add ID3 tag : No
Command line compressor : C:Program FilesExact Audio CopyFLACFLAC.EXE
Additional command line options : -8 -V -T "ARTIST=%a" -T "TITLE=%t" -T "ALBUM=%g" -T "DATE=%y" -T "TRACKNUMBER=%n" -T "GENRE=%m" -T "COMMENT=EAC FLAC -8" %s


TOC of the extracted CD

Track | Start|Length| Start sector | End sector
---------------------------------------------------------
1|0:00.00 |3:42.55 | 0|16704
2|3:42.55 |3:20.45 | 16705|31749
3|7:03.25 |3:52.27 | 31750|49176
4| 10:55.52 | 10:14.00 | 49177|95226


Track1

Filename D:MP3exUSSRОргия ПраведниковОргия Праведников - Шитрок (2012)1 - Шитрок.wav

Pre-gap length0:00:02.00

Peak level 98.9 %
939d7bacbbf08bce705540bc0d5599a3ecc415d1(2012) Оргия Праведников / Шитрок (Rock/Progressive Rock) [FLAC (tracks+cue), lossless] (2012) Оргия Праведников / Шитрок (Rock/Progressive Rock) [FLAC (tracks+cue), lossless] " />

Аплоадер: Админ, дата: 29-04-2012, 16:50, торрент скачан: 359 раз

Понравилась раздача? Посмотрите эти:
  • (2009) ONE REPUBLIC / Waking Up (Pop-Rock/Alternative) [FLAC (tracks+.cue) ...
  • (1977) Jethro Tull / Songs from the wood (Rock, Art-Rock) [FLAC (track+ cue ...
  • (2010)Scorpions/Sting In The Tail [FLAC (tracks+cue), lossless]
  • (2010) ПИKНИК / Театр Абсурда (Art-Rock) [FLAC (tracks+.cue), lossless]
  • (2010) Deftones / Diamond Eyes (Nu metal / Alternative) [FLAC, (tracks+ cu ...
  • (2008) Pink / Funhouse (Pop) [FLAC (tracks) lossless]
  • (Дискография) GORILLAZ (Trip-Hop) [FLAC (tracks + .cue) lossless]
  • (2010) Eminem / Recovery (Rap / Hip-Hop) [FLAC (tracks+.cue) lossless]
  • (2010) Michael Jackson - Michael (Pop) [FLAC, (tracks+.cue), lossless]
  • (2009) Radiohead / Hail To The Thief [Collectors Edition: 2-nd CD] (Alterna ...
  • (2011) Uriah Heep - Into The Wild (Hard Rock, Progressive Rock)[FLAC (track ...
  • (2011) Red Hot Chili Peppers / Im With You (Alternative Rock/Funk) [FLAC (t ...
  • (2011) Coldplay / Mylo Xyloto (Alternative Rock) [FLAC (tracks+.cue), lossl ...
  • (2010) Ravenna / Debrief (Alt. Rock / Christian Rock / Indie) [FLAC (tracks ...
  • (2012) Son Of A Bad Man / Heres To The Falling In... (Alt.Rock) [FLAC (trac ...
  • (2010) Rihanna / Loud (R&B) [FLAC (tracks+.cue), lossless]
  • (2003) DJ Zinc / Faster (DnB, Breaks) [ FLAC (tracks+.cue), lossless]
  • (2006) The Rasmus / Shot (Single) (Alternative Rock) [FLAC (tracks+.cue), l ...
  • (2011) Linkin Park / Iridescent (Alternative Rock) [FLAC(image+.cue), lossl ...
  • (2011) Evanescence / Evanescence (Alternative Rock) [FLAC (tracks+.cue), lo ...
  • (2011) Ленинград / Хна (Rock) [FLAC (tracks+.cue), lossless]
  • (2012) The Cranberries / Roses (Alternative Rock / Pop-Rock) [FLAC (tracks+ ...
  • (2011) Downhere / On The Altar Of Love (Alternative Rock/Christian Rock) [F ...
  • (2011) Святослав Вакарчук (Океан Эльзы) / Брюссель (Rock/Soft Rock) [FLAC ( ...
  • (2012) Thousand Foot Krutch / The End Is Where We Begin (Christian/Alt.Rock ...
  • Информация
    Посетители, находящиеся в группе Гости, не могут оставлять комментарии к данной публикации.