вход на сайт

Имя пользователя :
Пароль :

Восстановление пароля Регистрация
(2011) Святослав Вакарчук (Океан Эльзы) / Брюссель (Rock/Soft Rock) [FLAC (tracks+cue), lossless]
Рейтинг:
(голосов: 1)



[img]{THEME}/images/logopost.png[/img]





Исполнитель: Святослав Вакарчук
Альбом: Брюссель
Тип альбома: Студийный
Год выпуска: 2011
Страна: Украина
Жанр: Rock / Soft Rock
Формат: FLAC (tracks+cue)
Тип битрейта: lossless
Log-файл: Присутствует
Продолжительность: 00:44:38


Треклист
01.Airplane(03:20)
02.Адреналін(02:56)
03.Come To Me Baby(03:27)
04.Дощ(03:39)
05.Дай Мені Чистої Води(03:10)
06.Заплети (у свої коси ніч)(04:43)
07.Не Плач(05:03)
08.Зелений Чай(03:53)
09.Цунамі(02:37)
10.В Останній Момент(03:55)
11.Моя Планета(04:10)
12.Де Я(03:41)



Лог создания рипа ▼Exact Audio Copy V1.0 beta 3 from 29. August 2011

EAC extraction logfile from 8. April 2012, 18:17

Святослав Вакарчук / Брюссель

Used drive: HL-DT-STDVDRAM GSA-H42N Adapter: 0ID: 0

Read mode : Secure
Utilize accurate stream : Yes
Defeat audio cache: Yes
Make use of C2 pointers : No

Read offset correction: 667
Overread into Lead-In and Lead-Out: No
Fill up missing offset samples with silence : Yes
Delete leading and trailing silent blocks : No
Null samples used in CRC calculations : Yes
Used interface: Native Win32 interface for Win NT & 2000
Gap handling: Appended to previous track

Used output format: User Defined Encoder
Selected bitrate: 768 kBit/s
Quality : High
Add ID3 tag : No
Command line compressor : CProgram FilesExact Audio CopyFLACFLAC.EXE
Additional command line options : -V -8 -T "Genre=%genre%" -T "Artist=%artist%" -T "Title=%title%" -T "Album=%albumtitle%" -T "Date=%year%" -T "Tracknumber=%tracknr%" -T "Comment=%comment%" %source%


TOC of the extracted CD

Track | Start|Length| Start sector | End sector
---------------------------------------------------------
1|0:00.00 |3:20.39 | 0|15038
2|3:20.39 |2:56.34 | 15039|28272
3|6:16.73 |3:27.61 | 28273|43858
4|9:44.59 |3:39.11 | 43859|60294
5| 13:23.70 |3:10.71
05a84e74e4dcc64ccba0d9dc9d176e779762bfd6(2011) Святослав Вакарчук (Океан Эльзы) / Брюссель (Rock/Soft Rock) [FLAC (tracks+cue), lossless] (2011) Святослав Вакарчук (Океан Эльзы) / Брюссель (Rock/Soft Rock) [FLAC (tracks+cue), lossless] " />

Аплоадер: Админ, дата: 28-04-2012, 11:15, торрент скачан: 359 раз

Понравилась раздача? Посмотрите эти:
  • (2009) ONE REPUBLIC / Waking Up (Pop-Rock/Alternative) [FLAC (tracks+.cue) ...
  • (2010)Scorpions/Sting In The Tail [FLAC (tracks+cue), lossless]
  • (2010) ПИKНИК / Театр Абсурда (Art-Rock) [FLAC (tracks+.cue), lossless]
  • (2011) Red Hot Chili Peppers / Im With You (Alternative Rock/Funk) [FLAC (t ...
  • (2011) Coldplay / Mylo Xyloto (Alternative Rock) [FLAC (tracks+.cue), lossl ...
  • (2011) Daughtry / Break the Spell (Deluxe Edition) (Alt. Rock / Modern Rock ...
  • (2009) Dead By Sunrise / Out Of Ashes (Japanese Edition) (Alternative Rock) ...
  • (2012) Marilyn Manson / Born Villain (Industrial, Shock-Rock) [FLAC (tracks ...
  • (2012) Son Of A Bad Man / Heres To The Falling In... (Alt.Rock) [FLAC (trac ...
  • (1996) The Rasmus / Peep (Finnish Version) (Alternative Rock) [FLAC (tracks ...
  • (2011) Evanescence / Evanescence (Alternative Rock) [FLAC (tracks+.cue), lo ...
  • (2011) Scorpions / Comeblack (Hard Rock) [FLAC (tracks+.cue)lossless]
  • (2011) Святослав Вакарчук (Океан Эльзы) / Брюссель (Rock / Soft Rock) [MP3, ...
  • (2011) Ленинград / Хна (Rock) [FLAC (tracks+.cue), lossless]
  • (2012) The Cranberries / Roses (Alternative Rock / Pop-Rock) [FLAC (tracks+ ...
  • (2012) Les Friction / Les Friction (Alt. Rock/Neo-Classical/Orchestral) [FL ...
  • (2011) Downhere / On The Altar Of Love (Alternative Rock/Christian Rock) [F ...
  • (2012) Our Lady Peace / Curve (Alternative/Rock) [FLAC (tracks+.cue), lossl ...
  • (2012) Оргия Праведников / Шитрок (Rock/Progressive Rock) [FLAC (tracks+cue ...
  • (2012) Thousand Foot Krutch / The End Is Where We Begin (Christian/Alt.Rock ...
  • Информация
    Посетители, находящиеся в группе Гости, не могут оставлять комментарии к данной публикации.