вход на сайт

Имя пользователя :
Пароль :

Восстановление пароля Регистрация
(2004) Дельфин / Запись концерта 19.11.04 (Alternative|Experimental) [FLAC (tracks+.cue), lossless]
Рейтинг:
(голосов: 1)



[img]{THEME}/images/logopost.png[/img]





Альбом: Запись концерта 19.11.04
Тип альбома: Live
Год выпуска: 2004
Страна: Россия
Жанр: Alternative | Experimental
Формат: FLAC (tracks+.cue)
Битрейт: lossless
Log-файл: Присутствует
Продолжительность: 01:10:14


01.Сумерки[05:22]
02.Серебро[05:50]
03.Чужой[04:52]
04.Июнь[05:27]
05.Тебя[04:50]
06.Имя[05:14]
07.Весна[04:38]
08.Надежда[04:53]
09.Любовь[05:03]
10.Звезда[05:52]
11.Киберпанк[02:15]
12.Тоска[03:03]
13.Собака[04:47]
14.Романс[04:22]
15.Романс (радиоверсия)[03:46]


Отчет "EAC": ▼TextExact Audio Copy V0.99 prebeta 4 from 23. January 2008
EAC extraction logfile from 28. January 2009, 21:18
Dolphin / Запись концерта 19.11.04
Used drive : Optiarc DVD RW AD-7203S Adapter: 0 ID: 1
Read mode : Secure
Utilize accurate stream : Yes
Defeat audio cache : Yes
Make use of C2 pointers : No
Read offset correction : 48
Overread into Lead-In and Lead-Out : No
Fill up missing offset samples with silence : Yes
Delete leading and trailing silent blocks : No
Null samples used in CRC calculations : Yes
Used interface : Native Win32 interface for Win NT & 2000
Gap handling : Appended to previous track
Used output format : User Defined Encoder
Selected bitrate : lossless
Quality : High
Add ID3 tag : No
Command line compressor : C:Program FilesExact Audio CopyFlacflac.exe
Additional command line options : -8 -T "artist=%a" -T "title=%t" -T "album=%g" -T "date=%y" -T "tracknumber=%n" -T "genre=%m" %s
TOC of the extracted CD
Track | Start | Length | Start sector | End sector
---------------------------------------------------------
1 | 0:00.00 | 5:22.00 | 0 | 24149
2 | 5:22.00 | 5:50.00 | 24150 | 50399
3 | 11:12.00 | 4:52.00 | 50400 | 72299
4 | 16:04.00 | 5:27.00 | 72300 | 96824
5 | 21:31.00 | 4:50.00 | 96825 | 118574
6 | 26:21.00 | 5:14.00 | 118575 | 142124
7 | 31:35.00 | 4:38.00 | 142125 | 162974
8 | 36:13.00 | 4:53.00 | 162975 | 184949
9 | 41:06.00 | 5:03.00 | 184950 | 207674
10 | 46:09.00 | 5:52.00 | 207675 | 234074
11 | 52:01.00 | 2:15.00 | 234075 | 244199
12 | 54:16.00 | 3:03.00 | 244200 | 257924
13 | 57:19.00 | 4:47.00 | 257925 | 279449
14 | 62:06.00 | 4:22.00 | 279450 | 299099
15 | 66:28.00 | 3:46.10 | 299100 | 316059
Track 1
Filename C:DownloadsRIPDolphin - Запись концерта 19.11.041 – Сумерки.wav
Pre-gap length 0:00:02.00
Peak level 98.8 %
Track quality 100.0 %
Test CRC 7A9BC8C4
Copy CRC 7A9BC8C4
Copy OK
Track 2
Filename C:DownloadsRIPDolphin - Запись концерта 19.11.042 – Серебро.wav
Peak level 98.8 %
Track quality 99.9 %
Test CRC 9AF6E1B7
Copy CRC 9AF6E1B7
Copy OK
Track 3
Filename C:DownloadsRIPDolphin - Запись концерта 19.11.043 – Чужой.wav
Peak level 98.8 %
Track quality 100.0 %
Test CRC 691C0EF2
Copy CRC 691C0EF2
Copy OK
Track 4
Filename C:DownloadsRIPDolphin - Запись концерта 19.11.044 – Июнь.wav
Peak level 98.8 %
Track quality 100.0 %
Test CRC F6101235
Copy CRC F6101235
Copy OK
Track 5
Filename C:DownloadsRIPDolphin - Запись концерта 19.11.045 – Тебя.wav
Peak level 98.8 %
Track quality 100.0 %
Test CRC 56F60809
Copy CRC 56F60809
Copy OK
Track 6
Filename C:DownloadsRIPDolphin - Запись концерта 19.11.046 – Имя.wav
Peak level 98.8 %
Track quality 100.0 %
Test CRC BC164E74
Copy CRC BC164E74
Copy OK
Track 7
Filename C:DownloadsRIPDolphin - Запись концерта 19.11.047 – Весна.wav
Pre-gap length 0:00:00.04
Peak level 98.8 %
Track quality 100.0 %
Test CRC 6E6484D6
Copy CRC 6E6484D6
Copy OK
Track 8
Filename C:DownloadsRIPDolphin - Запись концерта 19.11.048 – Надежда.wav
Peak level 98.8 %
Track quality 100.0 %
Test CRC 4DDB5BDD
Copy CRC 4DDB5BDD
Copy OK
Track 9
Filename C:DownloadsRIPDolphin - Запись концерта 19.11.049 – Любовь.wav
Peak level 98.8 %
Track quality 100.0 %
Test CRC D5BC951A
Copy CRC D5BC951A
Copy OK
Track 10
Filename C:DownloadsRIPDolphin - Запись концерта 19.11.0410 – Звезда.wav
Peak level 98.8 %
Track
77004848ec85c16c3eaf30eaeb22951114a0bafc(2004) Дельфин / Запись концерта 19.11.04 (Alternative|Experimental) [FLAC (tracks+.cue), lossless] (2004) Дельфин / Запись концерта 19.11.04 (Alternative|Experimental) [FLAC (tracks+.cue), lossless] " />

Аплоадер: Админ, дата: 27-12-2011, 19:53, торрент скачан: 359 раз

Понравилась раздача? Посмотрите эти:
  • (2012, Сборник) VA / Вечерняя Коллекция (Звуки природы) (Relax) [FLAC (trac ...
  • (Jazz) Ray Charles — The Very Best Of Ray Charles - 2000, FLAC (tracks), lo ...
  • (1999) Red Hot Chili Peppers - Californication (Alternative rock, Funk) [FL ...
  • (2009) The Black Eyed Peas / The E.N.D. (The Energy Never Dies) (Target Del ...
  • (2010 , OST) Пипец / Kick Ass (OST) [FLAC (tracks+.cue) lossless]
  • (2008) Karunesh /Enlightenment (New Age) [FLAC (image+.cue), lossless]
  • (2011) Orjan Nilsen / In My Opinion (Trance) [FLAC (tracks+.cue), lossless] ...
  • (2010, сборник) VA / CDeelder Box (Swing) [FLAC (tracks+.cue), lossless]
  • (1988) David Grisman Quintet feat. Svend Asmussen / Svingin With Svend (Jaz ...
  • (2009) Timbaland / Shock Value II (Hip-Hop / RnB) [FLAC (tracks+.cue), loss ...
  • (2012) High Contrast / The Agony & The Ecstasy (Drum and Bass) [FLAC (track ...
  • (2006) The Rasmus / Shot (Single) (Alternative Rock) [FLAC (tracks+.cue), l ...
  • (2008) Miley Cyrus - Breakout (Platinum Edition) (Pop) [FLAC (tracks+.cue), ...
  • (2009) Miley Cyrus / The Time of Our Lives (Pop) [FLAC (tracks+.cue), lossl ...
  • (2010) [AMATORY] / Инстинкт обречённых (Nu Metal) [FLAC (tracks), lossless] ...
  • (2011) Linkin Park / Iridescent (Alternative Rock) [FLAC(image+.cue), lossl ...
  • (1999) Necrophagist / Onset Of Putrefaction (Technical Death Metal) [FLAC ( ...
  • (2011) This Will Destroy You / Tunnel Blanket (Post Rock) [FLAC (tracks+.cu ...
  • (Дискография, 2002 - 2012) Rodrigo y Gabriela (Acoustic, Flamenco, Classica ...
  • (2011) Ink Stained Promises / Relations. (Metalcore, Hardcore) [FLAC (track ...
  • Информация
    Посетители, находящиеся в группе Гости, не могут оставлять комментарии к данной публикации.