вход на сайт

Имя пользователя :
Пароль :

Восстановление пароля Регистрация
(2011) Дельфин / Существо (Alternative|Experimental) [FLAC (tracks+.cue), lossless]
Рейтинг:
(голосов: 1)



[img]{THEME}/images/logopost.png[/img]





Альбом: Существо
Тип альбома: Студийный
Год выпуска: 2011
Страна: Россия
Жанр: Alternative | Experimental
Формат: FLAC (tracks+.cue)
Битрейт: lossless
Log-файл: Присутствует
Продолжительность: 01:03:35


01. Начало (04:40)
02. Ждут (03:49)
03. Темно (05:53)
04. Снеговик (04:11)
05. Sunset (05:07)
06. Прощай (03:59)
07. Васильки (04:08)
08. Не было (03:41)
09. 6:30 am (03:43)
10. Частицы (04:55)
11. Надо (04:01)
12. 1 (04:24)
13. QT (04:57)
14. Всё (06:00)


Отчет "EAC": ▼TextExact Audio Copy V1.0 beta 3 from 29. August 2011
EAC extraction logfile from 26. November 2011, 0:27
Дельфин / Существо
Used drive : TSSTcorpCD/DVDW TS-L632D Adapter: 0 ID: 0
Read mode : Secure
Utilize accurate stream : Yes
Defeat audio cache : Yes
Make use of C2 pointers : No
Read offset correction : 6
Overread into Lead-In and Lead-Out : No
Fill up missing offset samples with silence : Yes
Delete leading and trailing silent blocks : No
Null samples used in CRC calculations : Yes
Used interface : Native Win32 interface for Win NT & 2000
Gap handling : Appended to previous track
Used output format : User Defined Encoder
Selected bitrate : 768 kBit/s
Quality : High
Add ID3 tag : No
Command line compressor : C:ProgramsExact Audio CopyFLACFLAC.EXE
Additional command line options : --best -V -T "ARTIST=%artist%" -T "TITLE=%title%" -T "ALBUM=%albumtitle%" -T "DATE=%year%" -T "TRACKNUMBER=%tracknr%" -T "GENRE=%genre%" -T "COMMENT=%comment%" -T "COMPOSER=%composer%" -T "TOTALTRACKS=%numtracks%" %source% -o %dest%
TOC of the extracted CD
Track | Start | Length | Start sector | End sector
---------------------------------------------------------
1 | 0:00.00 | 4:40.14 | 0 | 21013
2 | 4:40.14 | 3:49.37 | 21014 | 38225
3 | 8:29.51 | 5:53.67 | 38226 | 64767
4 | 14:23.43 | 4:11.46 | 64768 | 83638
5 | 18:35.14 | 5:07.23 | 83639 | 106686
6 | 23:42.37 | 3:59.54 | 106687 | 124665
7 | 27:42.16 | 4:08.61 | 124666 | 143326
8 | 31:51.02 | 3:41.37 | 143327 | 159938
9 | 35:32.39 | 3:43.26 | 159939 | 176689
10 | 39:15.65 | 4:55.00 | 176690 | 198814
11 | 44:10.65 | 4:01.00 | 198815 | 216889
12 | 48:1
f906cbdf632e373ef5334aa367d0dd2334d2bb97(2011) Дельфин / Существо (Alternative|Experimental) [FLAC (tracks+.cue), lossless] (2011) Дельфин / Существо (Alternative|Experimental) [FLAC (tracks+.cue), lossless] " />

Аплоадер: Админ, дата: 18-12-2011, 16:01, торрент скачан: 359 раз

Понравилась раздача? Посмотрите эти:
  • (2013) Prodigy & The Alchemist / Albert Einstein (Underground Hip-Hop) [FLA ...
  • (2011) Disturbed / The Lost Children (Alternative Metal) [FLAC (tracks+.cue ...
  • (2011) Linkin Park / LP Underground 11 (Alternative Rock) [FLAC (Image+cue) ...
  • (2012) Katie Melua / Secret Symphony (Jazz Pop, Vocal Jazz) [FLAC (tracks+. ...
  • (2011) B.B. King / Icon (Blues) [FLAC (tracks+.cue), lossless]
  • (2012) Mark Lanegan Band / Blues Funeral (Alternative Rock/Blues Rock) [FLA ...
  • (2012) Tomandandy / Resident Evil: Retribution (Score, Soundtrack)[FLAC (tr ...
  • (1996) The Rasmus / Peep (Finnish Version) (Alternative Rock) [FLAC (tracks ...
  • (2011) Mistabishi / Trip (Drum & Bass, Breakbeat) [FLAC (tracks+.cue), loss ...
  • (2011) Scorpions / Comeblack (Hard Rock) [FLAC (tracks+.cue)lossless]
  • (2011) Ленинград / Хна (Rock) [FLAC (tracks+.cue), lossless]
  • (2012) Buckethead / Electric Sea (Experimental/Acoustic/Ambient/Rock) [FLAC ...
  • (2012) Les Friction / Les Friction (Alt. Rock/Neo-Classical/Orchestral) [FL ...
  • (2011) SeeS / The enD (Progressive/Math Metal) [FLAC (tracks+.cue), lossles ...
  • (2012) Bleeding Through / The Great Fire (Symphonic Metalcore/Hardcore) [FL ...
  • (2012) Our Lady Peace / Curve (Alternative/Rock) [FLAC (tracks+.cue), lossl ...
  • (2011) Terra Tenebrosa / The Tunnels (Atmospheric Sludge Post-Metal/Psyched ...
  • (2012) Nine Lashes / World We View (Alt.Rock/Alt.Metal/Christian) [FLAC (tr ...
  • (2011) Phinehas / Thegodmachine (Metalcore) [FLAC (tracks+.cue), lossless]
  • (2012) For Today / Immortal (Metalcore, Hardcore, Christian) [FLAC (tracks+ ...
  • Информация
    Посетители, находящиеся в группе Гости, не могут оставлять комментарии к данной публикации.