вход на сайт

Имя пользователя :
Пароль :

Восстановление пароля Регистрация
(2010) БИ-2 / БИ-2 и Симфонический Оркестр МВД России (Подарочное издание, 2 CD) (Rock) [FLAC (image+.cue), lossless]
Рейтинг:
(голосов: 1)



[img]{THEME}/images/logopost.png[/img]





Сборник
Название сборника: БИ-2 и Симфонический Оркестр МВД России (Подарочное издание, 2 CD)
Год выпуска: 2011
Страна: Россия
Жанр: Rock
Формат: FLAC (image+.cue)
Битрейт: lossless
Log-файл: Присутствует
Продолжительность: 02:04:12



CD1:
Продолжительность: 01:02:11
01. Intro[01:40]
02. Зажигать[04:35]
03. Последний герой[04:09]
04. И корабль плывет...[04:15]
05. Достучаться до небес[05:18]
06. Небо без края (feat. И. Желанная)[05:14]
07. Скользкие улицы (feat. Brainstorm)[05:37]
08. Теряю голову[04:07]
09. Фламенко[04:00]
10. Мой рок-н-ролл (feat. Чичерина)[06:15]
11. Моя любовь[05:14]
12. Медленная звезда (feat. Д. Арбенина)[06:09]
13. Реки [05:33]
CD2:
Продолжительность: 01:02:01
01. Дурочка [03:54]
02. Научи меня быть счастливым (feat. Вельвет) [04:09]
03. С тобой [03:28]
04. Из-за меня (feat. Д. Арбенина) [05:06]
05. Прощай Берлин [05:11]
06. В этом городе (feat. И. Желанная) [06:17]
07. Варвара[04:39]
08. Забери меня (feat. И. Желанная) [05:22]
09. Небо [03:47]
10. Провидение новой луны (feat. Т. Кузнецова) [04:01]
11. Волки [05:51]
12. Полковнику никто не пишет [05:30]
13. Серебро [04:40]


Отчет "EAC" (CD1): ▼TextExact Audio Copy V1.0 beta 1 from 15. November 2010

EAC extraction logfile from 9. December 2010, 0:59

БИ-2 и Симфонический Оркестр МВД России / БИ-2 и Симфонический Оркестр МВД России - CD 1

Used drive : PIONEER DVD-RW DVR-212 Adapter: 8 ID: 0

Read mode : Secure
Utilize accurate stream : Yes
Defeat audio cache : Yes
Make use of C2 pointers : No

Read offset correction : 48
Overread into Lead-In and Lead-Out : No
Fill up missing offset samples with silence : Yes
Delete leading and trailing silent blocks : No
Null samples used in CRC calculations : Yes
Used interface : Installed external ASPI interface

Used output format : Internal WAV Routines
Sample format : 44.100 Hz; 16 Bit; Stereo

TOC of the extracted CD

Track | Start | Length | Start sector | End sector
---------------------------------------------------------
1 | 0:00.00 | 1:40.35 | 0 | 7534
2 | 1:40.35 | 4:35.33 | 7535 | 28192
3 | 6:15.68 | 4:09.14 | 28193 | 46881
4 | 10:25.07 | 4:15.03 | 46882 | 66009
5 | 14:40.10 | 5:18.68 | 66010 | 89927
6 | 19:59.03 | 5:14.60 | 89928 | 113537
7 | 25:13.63 | 5:37.17 | 113538 | 138829
8 | 30:51.05 | 4:07.07 | 138830 | 157361
9 | 34:58.12 | 4:00.46 | 157362 | 175407
10 | 38:58.58 | 6:15.72 | 175408 | 203604
11 | 45:14.55 | 5:14.54 | 203605 | 227208
12 | 50:29.34 | 6:09.26 | 227209 |
30092af30ae3a72656d48a16894af8bfbb2add40(2010) БИ-2 / БИ-2 и Симфонический Оркестр МВД России (Подарочное издание, 2 CD) (Rock) [FLAC (image+.cue), lossless] (2010) БИ-2 / БИ-2 и Симфонический Оркестр МВД России (Подарочное издание, 2 CD) (Rock) [FLAC (image+.cue), lossless] " />

Аплоадер: Админ, дата: 18-12-2011, 14:32, торрент скачан: 359 раз

Понравилась раздача? Посмотрите эти:
  • (1996) George Michael / Older (1st Press Japan) (Electronic, Pop/Rock) [FLA ...
  • (1997) Моральный кодекс / Я выбираю тебя (подарочное издание 2007) (Pop-Roc ...
  • (2010) Сергей Трофимов (Трофим) / Всё не важно (Шансон) [FLAC(image+.cue), ...
  • (2010) Ассаи / Лифт (Rap) [FLAC(image+.cue), lossless]
  • (2010) Eminem / Recovery (Rap / Hip-Hop) [FLAC (tracks+.cue) lossless]
  • (2010) Алиса / Ъ (The Hard Sign) (Hard Rock) [WavPack (iso.wv (image+.cue)) ...
  • (2007) Константин Никольский / Иллюзии (Rock) [APE (image + .cue), lossless ...
  • (2010) YELLO / Yello By Yello. The Anthology (Limited Deluxe Edition 3CD+D ...
  • (2010) Unkle - Where Did The Night Fall, (Electronic, Trip-Hop), [FLAC (tra ...
  • (2010) Zdob si Zdub / Белое вино / Красное вино (folk rock, folk punk, hard ...
  • (2008) Юрий Наумов / Рок как будто Блюз (Blues) [FLAC (Image+.cue), lossles ...
  • (2009) D-Man 55 / 7.62 Б-30 (Rap) [FLAC (image+.cue) lossless]
  • (2010) 2Pac / Greatest Hits (Rap & Hip Hop) [APE (image+.cue), lossless]
  • (2010) Rihanna / Loud (R&B) [FLAC (tracks+.cue), lossless]
  • (2010, сборник) VA / 20 Лет Без КИНО (Русский рок) [mp3, 128kbps/CBR]
  • (2010) БИ-2 /БИ-2 и Симфонический Оркестр МВД России (2 CD) (Rock) [МР3, 32 ...
  • (2011) Yanni / Truth Of Touch (New Age) [FLAC (image+ .cue),lossless]
  • (2011) Стас Михайлов / Только ты (Шансон) [Flac(image+.cue)Lossless]
  • (2011) Слот / F5 (Alternative Metal) [FLAC (image+.cue)lossless]
  • (2011) Сурганова & Оркестр / Увидимся скоро (Rock) [FLAC (image+.cue), loss ...
  • (2011) Metallica / Beyond Magnetic (Thrash Metal) [FLAC (image+.cue), lossl ...
  • (2012) Fox / 2012 (Melodic Hard Rock) [FLAC (image +.cue), lossless]
  • (2010) Uma2rmaH / 1825 The Best (Pop-Rock) [FLAC (image+.cue), lossless]
  • (2010) Татьяна Буланова / Романсы (Pop) [FLAC (image+.cue), lossless]
  • (2011) Lou Reed & Metallica / Lulu (Heavy Metal, Hard Rock) [FLAC (image+.c ...
  • Информация
    Посетители, находящиеся в группе Гости, не могут оставлять комментарии к данной публикации.