вход на сайт

Имя пользователя :
Пароль :

Восстановление пароля Регистрация
(2011) Сурганова & Оркестр / Увидимся скоро (Rock) [FLAC (image+.cue), lossless]
Рейтинг:
(голосов: 1)



[img]{THEME}/images/logopost.png[/img]





Альбом: Увидимся скоро
Тип альбома: Студийный
Год выпуска: 2011
Страна: Россия
Жанр: Rock
Формат: FLAC (image+.cue)
Битрейт: lossless
Log-файл: Присутствует
Продолжительность: 00:45:23



01. Интро (2:22)
02. Увидимся скоро (5:10)
03. Хвала (3:11)
04. Sanctum Sanctorum (4:24)
05. Португальская (3:48)
06. Высочество (4:30)
07. Голубые города (3:27)
08. Не покидай (3:54)
09. Дождь (3:23)
10. Забирай (4:14)
11. За тобой (4:24)
12. Душа (2:45)


Отчет "EAC": ▼Text Exact Audio Copy V0.99 prebeta 5 from 4. May 2009

EAC extraction logfile from 19. October 2011, 1:17

Сурганова и оркестр / Увидимся скоро

Used drive : HL-DT-STDVDRAM GSA-T50N Adapter: 1 ID: 0

Read mode : Secure
Utilize accurate stream : Yes
Defeat audio cache : Yes
Make use of C2 pointers : No

Read offset correction : 667
Overread into Lead-In and Lead-Out : No
Fill up missing offset samples with silence : Yes
Delete leading and trailing silent blocks : No
Null samples used in CRC calculations : Yes
Used interface : Native Win32 interface for Win NT & 2000

Used output format : Internal WAV Routines
Sample format : 44.100 Hz; 16 Bit; Stereo

TOC of the extracted CD

Track | Start | Length | Start sector | End sector
---------------------------------------------------------
1 | 0:00.00 | 2:21.56 | 0 | 10630
2 | 2:21.56 | 5:10.37 | 10631 | 33917
3 | 7:32.18 | 3:11.11 | 33918 | 48253
4 | 10:43.29 | 4:23.68 | 48254 | 68046
5 | 15:07.22 | 3:47.57 | 68047 | 85128
6 | 18:55.04 | 4:29.61 | 85129 | 105364
7 | 23:24.65 | 3:27.10 | 105365 | 120899
8 | 26:52.00 | 3:53.41 | 120900 | 138415
9 | 30:45.41 | 3:23.27 | 138416 | 153667
10 | 34:08.68 | 4:13.54 | 153668 | 172696
11 | 38:22.47 | 4:24.32 | 172697 | 192528
12 | 42:47.04 | 2:45.27 | 192529 | 204930

Range status and errors

Selected range

Filename C:UsersLjudmilaDesktopСургановаСурганова и оркестр - Увидимся скоро.wav

Peak level 98.8 %
Range quality 100.0 %
Test CRC 97468FD3
Copy CRC 97468FD3
Copy OK

No errors occurred

AccurateRip summary

Track 1 not present in database
Track 2 not present in database
Track 3 not present in database
Track 4 not present in database
Track 5 not present in database
Track 6 not present in database
Track 7 not present in database
Track 8 not present in database
Track 9 not present in database
Track 10 not present in database
Track 11 not present in database
Track 12 not present in database

None of the tracks are present in the AccurateRip database

End of status report

4b4601db066a2c7d410aa588efec598e9b19e0de(2011) Сурганова & Оркестр / Увидимся скоро (Rock) [FLAC (image+.cue), lossless] (2011) Сурганова & Оркестр / Увидимся скоро (Rock) [FLAC (image+.cue), lossless] " />

Аплоадер: Админ, дата: 18-12-2011, 13:22, торрент скачан: 359 раз

Понравилась раздача? Посмотрите эти:
  • (2013) Мумий Тролль / SOS Матросу - 2013, (Rock) [FLAC (image+.cue), lossle ...
  • (2013) Linkin Park & Steve Aoki / A Light That Never Comes (Electronic Rock ...
  • (2011) Mylene Farmer/ Bleu Noir (CDS + CDM) (Pop) [APE (image+.cue) lossles ...
  • (2011) Scar Symmetry / The Unseen Empire (Melodic Death Metal) [FLAC (image ...
  • (1986 [2010]) Пикник / Иероглиф (Полная история) (Rock) [WavPack (image+.cu ...
  • (2001) Пикник / Египтянин (Полная история) (Rock) [WavPack (image+.cue), lo ...
  • (2011) Sepultura / Kairos (Thrash Metal) [Flac(image+.cue)lossless]
  • (2012) Linkin Park / Burn It Down (Alternative Rock) (Single) [FLAC (image+ ...
  • (Дискография, 1987-1999) Obliveon (Technical Thrash Metal) [FLAC (image+.cu ...
  • (2011 15CD Box Set Digitally Remaster) Rush - Sectors (Rock, Progressive R ...
  • (2012) Madonna / Superstar (Pop) [FLAC (image+.cue), lossless]
  • (2009) Miley Cyrus / The Time of Our Lives (Pop) [FLAC (tracks+.cue), lossl ...
  • (2011) VA / Танцевальный Рай 27 (Pop) [FLAC (image+.cue), lossless]
  • (2011) Linkin Park / Iridescent (Alternative Rock) [FLAC(image+.cue), lossl ...
  • (2011) Сурганова и Оркестр / Увидимся скоро (Rock, Vip-Punk-Decadence) [MP3 ...
  • (2011) JORN / Live In Black (Heavy/Progressive Metal ) [FLAC (image+.cue), ...
  • (2011) Rammstein / Mein Land (Neue Deutsche Harte, Industrial, Tanz-Metal) ...
  • (2011) Adriano Celentano / Facciamo Finta Che Sia Vero (POP) [FLAC (image+. ...
  • (2011) This Will Destroy You / Tunnel Blanket (Post Rock) [FLAC (tracks+.cu ...
  • (2011) Metallica / Beyond Magnetic (Thrash Metal) [FLAC (image+.cue), lossl ...
  • (2012) Adrenaline Mob / Omerta (Heavy Metal/Progressive/Nu-Metal) [FLAC (im ...
  • (2012) Crippled Black Phoenix / (Mankind) The Crafty Ape (Alternative/Indie ...
  • (2010) Татьяна Буланова / Романсы (Pop) [FLAC (image+.cue), lossless]
  • (2011) Lou Reed & Metallica / Lulu (Heavy Metal, Hard Rock) [FLAC (image+.c ...
  • (2010) Punish My Heaven / First Punishment (Melodic Death Metal, Metalcore) ...
  • Информация
    Посетители, находящиеся в группе Гости, не могут оставлять комментарии к данной публикации.