вход на сайт

Имя пользователя :
Пароль :

Восстановление пароля Регистрация
(2011) Слот / Break The Code (Alternative Metal) [FLAC (image+.cue)lossless]
Рейтинг:
(голосов: 1)



[img]{THEME}/images/logopost.png[/img]





Альбом: Break The Code
Тип альбома: Студийный
Год выпуска: 2011
Страна: Россия
Жанр: Alternative Metal
Формат: Flac (image+.сue)
Битрейт: lossless
Лог-файл: Присутствует
Продолжительность: 00:58:46


01. Break The Code (03:54)
02. Bullet (03:33)
03. Alone (03:10)
04. Lego (03:28)
05. Two Wars (03:44)
06. Kill Me Baby One More Time (03:40)
07. Mirrors (03:33)
08. Heaven (03:45)
09. We (04:00)
10. Vamp (03:51)
11. My Angel (03:31)
12. Dead Stars (02:59)
13. Not Yet (04:02)
14. Time To Go (03:08)
15. Tick (04:14)
16. Broken Mirror (Blue Stone Remix) (04:06)

EAC ▼TextExact Audio Copy V1.0 beta 3 from 29. August 2011

EAC extraction logfile from 16. November 2011, 15:45

Слот / Brake The Code

Used drive : _NEC DVD_RW ND-3540A Adapter: 0 ID: 0

Read mode : Secure
Utilize accurate stream : Yes
Defeat audio cache : Yes
Make use of C2 pointers : No

Read offset correction : 48
Overread into Lead-In and Lead-Out : No
Fill up missing offset samples with silence : Yes
Delete leading and trailing silent blocks : No
Null samples used in CRC calculations : Yes
Used interface : Native Win32 interface for Win NT & 2000

Used output format : User Defined Encoder
Selected bitrate : 768 kBit/s
Quality : High
Add ID3 tag : No
Command line compressor : C:Program Files (x86)Exact Audio CopyFLACFLAC.EXE
Additional command line options : -V -8 %source%


TOC of the extracted CD

Track | Start | Length | Start sector | End sector
---------------------------------------------------------
1 | 0:00.00 | 3:53.69 | 0 | 17543
2 | 3:53.69 | 3:33.44 | 17544 | 33562
3 | 7:27.38 | 3:10.36 | 33563 | 47848
4 | 10:37.74 | 3:28.66 | 47849 | 63514
5 | 14:06.65 | 3:44.54 | 63515 | 80368
6 | 17:51.44 | 3:40.43 | 80369 | 96911
7 | 21:32.12 | 3:33.67 | 96912 | 112953
8 | 25:06.04 | 3:45.54 | 112954 | 129882
9 | 28:51.58 | 4:00.47 | 129883 | 147929
10 | 32:52.30 | 3:51.27 | 147930 | 165281
11 | 36:43.57 | 3:31.07 | 165282 | 181113
12 | 40:14.64 | 2:59.60 | 181114 | 194598
13 | 43:14.49 | 4:02.63 |
51b0520ab6afccee408839f8c8e41386b38cc28f(2011) Слот / Break The Code (Alternative Metal) [FLAC (image+.cue)lossless] (2011) Слот / Break The Code (Alternative Metal) [FLAC (image+.cue)lossless] " />

Аплоадер: Админ, дата: 17-11-2011, 16:18, торрент скачан: 359 раз

Понравилась раздача? Посмотрите эти:
  • (2009) ONE REPUBLIC / Waking Up (Pop-Rock/Alternative) [FLAC (tracks+.cue) ...
  • (2010) Deftones / Diamond Eyes (Nu metal / Alternative) [FLAC, (tracks+ cu ...
  • (2010) Ассаи / Лифт (Rap) [FLAC(image+.cue), lossless]
  • (2011) Hollywood Undead / American Tragedy (Deluxe Edition) (Alternative/Hi ...
  • (2011) Red Hot Chili Peppers / Im With You (Alternative Rock/Funk) [FLAC (t ...
  • (2011) Coldplay / Mylo Xyloto (Alternative Rock) [FLAC (tracks+.cue), lossl ...
  • (2011) Daughtry / Break the Spell (Deluxe Edition) (Alt. Rock / Modern Rock ...
  • (2011) 3 Doors Down / Time Of My Life [Deluxe Edition] (Alternative Rock/Po ...
  • (2011) Sum 41 / Screaming Bloody Murder‎ (Punk-Rock/Alternative)[FLAC (trac ...
  • [2009] Muse / The Resistance (Alternative / Indie) [FLAC, lossless]
  • (2011) Linkin Park / Iridescent (Alternative Rock) [FLAC(image+.cue), lossl ...
  • (2011) Evanescence / Evanescence (Alternative Rock) [FLAC (tracks+.cue), lo ...
  • (2011) Stargazery / Eye On The Sky (Heavy Metal) [FLAC (image+.cue), lossle ...
  • (2011) JORN / Live In Black (Heavy/Progressive Metal ) [FLAC (image+.cue), ...
  • (2011) Слот / Break The Code (Alt. Metal) [MP3, 320/CBR]
  • (2011) Слот / F5 (Alternative Metal) [FLAC (image+.cue)lossless]
  • (2011) Дельфин / Существо (Alternative|Experimental) [FLAC (tracks+.cue), l ...
  • (2012) The Cranberries / Roses (Alternative Rock / Pop-Rock) [FLAC (tracks+ ...
  • (2012) Anneke van Giersbergen / Everything Is Changing (Alternative Rock/Fe ...
  • (2011) Volumes / Via (Progressive Metalcore/Math Metal) [FLAC (image+.cue), ...
  • (2012) Soulfly / Enslaved [Deluxe Edition] (Groove Metal/Thrash Metal) [FLA ...
  • (2012) Game Over / For Humanity (Thrash Metal) [FLAC (image+.cue), lossless ...
  • (2010) Punish My Heaven / First Punishment (Melodic Death Metal, Metalcore) ...
  • (2011) Skindred / Union Black (Alternative Metal, Ragga-Metal) [FLAC (track ...
  • (2011) Gorillaz - The Singles Collection 2001-2011 (Alternative / Hip-Hop / ...
  • Информация
    Посетители, находящиеся в группе Гости, не могут оставлять комментарии к данной публикации.