вход на сайт

Имя пользователя :
Пароль :

Восстановление пароля Регистрация
(2011) Слот / F5 (Alternative Metal) [FLAC (image+.cue)lossless]
Рейтинг:
(голосов: 1)



[img]{THEME}/images/logopost.png[/img]





Альбом: F5
Тип альбома: Студийный
Год выпуска: 2011
Страна: Россия
Жанр: Alternative Metal
Формат: Flac (image+.сue)
Битрейт: lossless
Лог-файл: Присутствует
Продолжительность: 00:55:19


01. F5 (03:40)
02. Манифест (03:24)
03. Сумерки (03:51)
04. Одинокие люди (03:23)
05. Брейвик-шоу (02:51)
06. R.I.P. (03:18)
07. Лего (03:26)
08. Несовпадения (04:23)
09. Рок-н-ролл мертв (02:55)
10. Чёрное на чёрном (03:51)
11. Спам (03:21)
12. Kill Me Baby One More Time (03:38)
13. 2012 (04:51)
14. Тело (feat. Roman Rain) (04:10)
15. Улица Роз (feat. Артур Беркут) (04:12)

EAC ▼TextExact Audio Copy V1.0 beta 3 from 29. August 2011

EAC extraction logfile from 16. November 2011, 16:05

Слот / F5

Used drive : _NEC DVD_RW ND-3540A Adapter: 0 ID: 0

Read mode : Secure
Utilize accurate stream : Yes
Defeat audio cache : Yes
Make use of C2 pointers : No

Read offset correction : 48
Overread into Lead-In and Lead-Out : No
Fill up missing offset samples with silence : Yes
Delete leading and trailing silent blocks : No
Null samples used in CRC calculations : Yes
Used interface : Native Win32 interface for Win NT & 2000

Used output format : User Defined Encoder
Selected bitrate : 768 kBit/s
Quality : High
Add ID3 tag : No
Command line compressor : C:Program Files (x86)Exact Audio CopyFLACFLAC.EXE
Additional command line options : -V -8 %source%


TOC of the extracted CD

Track | Start | Length | Start sector | End sector
---------------------------------------------------------
1 | 0:00.00 | 3:39.69 | 0 | 16493
2 | 3:39.69 | 3:24.29 | 16494 | 31822
3 | 7:04.23 | 3:51.62 | 31823 | 49209
4 | 10:56.10 | 3:23.39 | 49210 | 64473
5 | 14:19.49 | 2:51.13 | 64474 | 77311
6 | 17:10.62 | 3:18.26 | 77312 | 92187
7 | 20:29.13 | 3:26.06 | 92188 | 107643
8 | 23:55.19 | 4:23.48 | 107644 | 127416
9 | 28:18.67 | 2:55.01 | 127417 | 140542
10 | 31:13.68 | 3:51.45 | 140543 | 157912
11 | 35:05.38 | 3:21.10 | 157913 | 172997
12 | 38:26.48 | 3:37.74 | 172998 | 189346
13 | 42:04.47 | 4:51.04 | 1
7035b56f81b20392b67994d6a69204f3136c828b(2011) Слот / F5 (Alternative Metal) [FLAC (image+.cue)lossless] (2011) Слот / F5 (Alternative Metal) [FLAC (image+.cue)lossless] " />

Аплоадер: Админ, дата: 17-11-2011, 16:12, торрент скачан: 359 раз

Понравилась раздача? Посмотрите эти:
  • (2009) ONE REPUBLIC / Waking Up (Pop-Rock/Alternative) [FLAC (tracks+.cue) ...
  • (2010) Deftones / Diamond Eyes (Nu metal / Alternative) [FLAC, (tracks+ cu ...
  • (2010) Ассаи / Лифт (Rap) [FLAC(image+.cue), lossless]
  • (2011) Red Hot Chili Peppers / Im With You (Alternative Rock/Funk) [FLAC (t ...
  • (Дискография, 1988-2011) Kingdom Come (Hard&Heavy,Glam Metal) [FLAC (image+ ...
  • (2012) Linkin Park / Burn It Down (Alternative Rock) (Single) [FLAC (image+ ...
  • (2012) Christina Aguilera / The Best (Unofficial) (Pop) [FLAC (image+.cue), ...
  • (2011) Sum 41 / Screaming Bloody Murder‎ (Punk-Rock/Alternative)[FLAC (trac ...
  • [2009] Muse / The Resistance (Alternative / Indie) [FLAC, lossless]
  • (2011) Linkin Park / Iridescent (Alternative Rock) [FLAC(image+.cue), lossl ...
  • (2009) Чиж & Co / Лучшее. Золотая коллекция (Rock) [FLAC (image+.cue), loss ...
  • (2011) Evanescence / Evanescence (Alternative Rock) [FLAC (tracks+.cue), lo ...
  • (2011) СЛОТ / F5 (Alternative Metal) [MP3, 320/CBR]
  • (2011) Stargazery / Eye On The Sky (Heavy Metal) [FLAC (image+.cue), lossle ...
  • (2011) Слот / Break The Code (Alternative Metal) [FLAC (image+.cue)lossless ...
  • (2011) Дельфин / Существо (Alternative|Experimental) [FLAC (tracks+.cue), l ...
  • (2012) The Cranberries / Roses (Alternative Rock / Pop-Rock) [FLAC (tracks+ ...
  • (2012) Anneke van Giersbergen / Everything Is Changing (Alternative Rock/Fe ...
  • (2011) Volumes / Via (Progressive Metalcore/Math Metal) [FLAC (image+.cue), ...
  • (2012) Soulfly / Enslaved [Deluxe Edition] (Groove Metal/Thrash Metal) [FLA ...
  • (2012) Game Over / For Humanity (Thrash Metal) [FLAC (image+.cue), lossless ...
  • (2010) Punish My Heaven / First Punishment (Melodic Death Metal, Metalcore) ...
  • (2011) Skindred / Union Black (Alternative Metal, Ragga-Metal) [FLAC (track ...
  • (2011) Gorillaz - The Singles Collection 2001-2011 (Alternative / Hip-Hop / ...
  • (2012) Сплин / Обман зрения (Rock) [FLAC (image+.cue), lossless]
  • Информация
    Посетители, находящиеся в группе Гости, не могут оставлять комментарии к данной публикации.