вход на сайт

Имя пользователя :
Пароль :

Восстановление пароля Регистрация
(1998) Шанхай и Маргулис / 7+1 (Blues Rock) [FLAC (tracks+.cue), lossless]
Рейтинг:
(голосов: 1)



[img]{THEME}/images/logopost.png[/img]



Исполнитель: Шанхай и Маргулис
Альбом: 7+1
Тип альбома: Студийный
Год выпуска: 1998
Жанр: Blues Rock
Формат: FLAC (tracks+.cue)
Битрейт: lossless
Продолжительность: 00:39:05

Tреклист:
1. Шанхай - Блюз для Анны (4:06)
2. Шанхай - Да и нет (3:22)
3. Шанхай - Джаз (3:57)
4. Шанхай - Земляничные поляны (3:52)
5. Шанхай - Когда ты уйдешь (5:01)
6. Шанхай - Я еду по дороге (3:18)
7. Шанхай - Снег (3:34)
8. Шанхай - 40 лет (4:35)
9. Шанхай - Подруга номер пять (3:34)
10. Шанхай - Последняя (3:47)

"Отчет EAC" ▼TextExact Audio Copy V0.99 prebeta 4 from 23. January 2008
Отчёт EAC об извлечении, выполненном 11. июня 2008, 2:05
Шанхай / 7+1
Дисковод: PHILIPS CDRW/DVD CDD5263 Adapter: 1 ID: 0
Режим чтения : Достоверность
Использование точного потока : Да
Отключение кэша аудио : Да
Использование указателей C2 : Нет
Коррекция смещения при чтении : 594
Способность читать области Lead-in и Lead-out : Нет
Заполнение пропущенных сэмплов тишиной : Да
Удаление блоков с тишиной в начале и конце : Нет
При вычислениях CRC использовались нулевые сэмплы : Да
Интерфейс : Установленный внешний ASPI-интерфейс
Обработка зазоров : Не обнаружено, добавлено к предыдущему треку
Выходной формат : Пользовательский кодировщик
Выбранный битрейт : 768 kBit/s
Качество : Высокий
Добавление ID3-тэга : Да
Утилита сжатия : C:Program FilesExact Audio CopyFLACFLAC.EXE
Дополнительные параметры : -6 -V -T "ARTIST=%a" -T "TITLE=%t" -T "ALBUM=%g" -T "DATE=%y" -T "TRACKNUMBER=%n" -T "GENRE=%m" -T "COMMENT=%e" %s -o %d
TOC извлечённого CD
Трек | Старт | Длительность | Начальный сектор | Конечный сектор
---------------------------------------------------------------------
1 | 0:00.00 | 4:06.38 | 0 | 18487
2 | 4:06.38 | 3:22.04 | 18488 | 33641
3 | 7:28.42 | 3:57.12 | 33642 | 51428
4 | 11:25.54 | 3:52.13 | 51429 | 68841
5 | 15:17.67 | 5:00.50 | 68842 | 91391
6 | 20:18.42 | 3:17.43 | 91392 | 106209
7 | 23:36.10 | 3:34.05 | 106210 | 122264
8 | 27:10.15 | 4:34.51 | 122265 | 142865
9 | 31:44.66 | 3:33.50 | 142866 | 158890
10 | 35:18.41 | 3:47.06 | 158891 | 175921
Трек 1
Имя файла C:111Шанхай7+1�1 Шанхай - Блюз для Анны.wav
Пиковый уровень 100.0 %
Качество трека 100.0 %
CRC копии 77C04245
Копирование... OK
Трек 2
Имя файла C:111Шанхай7+1�2 Шанхай - Да и нет.wav
Пиковый уровень 100.0 %
Качество трека 100.0 %
CRC копии 9EE08F9C
Копирование... OK
Трек 3
Имя файла C:111Шанхай7+1�3 Шанхай - Джаз.wav
Пиковый уровень 100.0 %
Качество трека 100.0 %
CRC копии 67FC9F56
Копирование... OK
Трек 4
Имя файла C:111Шанхай7+1�4 Шанхай - Земляничные поляны.wav
Пиковый уровень 100.0 %
Качество трека 100.0 %
CRC копии DE607BF9
Копирование... OK
Трек 5
Имя файла C:111Шанхай7+1�5 Шанхай - Когда ты уйдешь.wav
Пиковый уровень 100.0 %
Качество трека 100.0 %
CRC копии 771074FA
Копирование... OK
Трек 6
Имя файла C:111Шанхай7+1�6 Шанхай - Я еду по дороге.wav
Пиковый уровень 100.0 %
Качество трека 99.9 %
CRC копии 480680FB
Копирование... OK
Трек 7
Имя файла C:111Шанхай7+1�7 Шанхай - Снег.wav
Пиковый уровень 100.0 %
Качество трека 100.0 %
CRC копии DD21AB25
Копирование... OK
Трек 8
Имя файла C:111Шанхай7+1�8 Шанхай - 40 лет.wav
Пиковый уровень 100.0 %
Качество трека 100.0 %
CRC копии 65BE97F2
Копирование... OK
Трек 9
Имя файла C:111Шанхай7+1�9 Шанхай - Подруга номер пять.wav
Пиковый уровень 100.0 %
Качество трека 100.0 %
CRC копии 7838A020
Копирование... OK
Трек 10
Имя файла C:111Шанхай7+110 Шанхай - Последняя.wav
Пиковый уровень 100.0 %
Качество трека 100.0 %
CRC копии B738D3CF
Копирование... OK
Ошибок не произошло
Конец отчёта


46e517da99bace8715badb06121fd03b297427ce(1998) Шанхай и Маргулис / 7+1 (Blues Rock) [FLAC (tracks+.cue), lossless] (1998) Шанхай и Маргулис / 7+1 (Blues Rock) [FLAC (tracks+.cue), lossless] " />

Аплоадер: Админ, дата: 20-09-2011, 00:56, торрент скачан: 359 раз

Понравилась раздача? Посмотрите эти:
  • (1993) Coverdale & Page / Coverdale & Page (EMI Holland)(Hard Rock) [FLAC ( ...
  • (2000) a-ha / Minor Earth | Major Sky (Alternative Rock, Synth-pop ) [FLAC ...
  • (2013) Тимоха VBT / Шанхай (Rap, Hip-Hop) [MP3, 320 kbps/CBR]
  • (2013) Loc-Dog & Tony VA / Все знают всё (Rap, Hip-Hop) [FLAC (Tracks+.Cue ...
  • (2013) Pinnick Gales Pridgen / Pinnick Gales Pridgen (Hard Rock, Heavy Blue ...
  • (2012) Рем Дигга / Черника (Rap) [FLAC (tracks+.cue), lossless]
  • (2012) Три Кита (Зануда, Gipsy King, Тато) / Три Кита (Rap) [FLAC (tracks+. ...
  • (2010) БИ-2 / О чём говорят мужчины (Pop-Rock) [FLAC (image + .cue), lossle ...
  • (2008) Amaral / Gato negro Dragon rojo (Latin rock, alternative rock) [Flac ...
  • (1997) Шанхай (Маргулис) / До свидания, друг (Blues, Rock) [APE (image+.cue ...
  • (2011) ГРОТ / О Пути По Встречной (Rap) [FLAC (tracks+.cue), lossless]
  • (2012) The Rasmus / The Rasmus (Alternative Rock/Melodic Rock) [FLAC (track ...
  • (1993) Mireille Mathieu / Chante Piaf (Pop) [FLAC (tracks+.cue), lossless]
  • (2012) The Blues Overdrive / The Blues Overdrive (Blues-Rock) [FLAC (image+ ...
  • (2012) Rammstein / Mein Herz brennt (Industrial, Tanz-Metal) [FLAC (tracks ...
  • (2009) Александр Розенбаум - Мечта блатного поэта (Авторская песня) [MP3, 3 ...
  • (2009) Евгений Маргулис и "Kremlin Orchestra" / Письма (Blues) [MP3, 320 kb ...
  • (2004) Евгений Маргулис / 45 лет (Blues) [MP3, 320 kbps/CBR]
  • (1986) Dark Angel / Darkness Descends (Thrash Metal) [FLAC (image+.cue), lo ...
  • (2011) Ассаи / ОМ (Rap) [FLAC (tracks+.cue), lossless]
  • Информация
    Посетители, находящиеся в группе Гости, не могут оставлять комментарии к данной публикации.