вход на сайт

Имя пользователя :
Пароль :

Восстановление пароля Регистрация
(2009) Чиж & Co / Лучшее. Золотая коллекция (Rock) [FLAC (image+.cue), lossless]
Рейтинг:
(голосов: 1)



[img]{THEME}/images/logopost.png[/img]



Исполнитель: Чиж & Co
Альбом: Лучшее. Золотая коллекция
Тип альбома: Compilation
Год выпуска: 2009
Жанр: Rock
Формат: FLAC (image+.cue)
Битрейт: lossless
Продолжительность: 1:19:36; 1:18:11

CD1
Tреклист:
01 Перекресток (7:01)
02 Она не вышла замуж... (6:48)
03 Такие дела (5:56)
04 Вечная молодость (2:59)
05 Поход (3:31)
06 Сен Семилья (5:45)
07 Дополнительный 38 (5:09)
08 Русская (хочу чаю) (3:31)
09 Hoochie Coochie Man (3:44)
10 Мышка (2:22)
11 В старинном городе О (3:42)
12 Я не такой (4:05)
13 Фантом (4:14)
14 Летят перелетные птицы (4:49)
15 Под звездами балканскими (3:51)
16 На поле танки грохотали (3:50)
17 Ленинградские мосты (4:44)
18 Прекрасное воскресенье (3:34)

"Отчет EAC" ▼Exact Audio Copy V0.99 prebeta 5 from 4. May 2009

EAC extraction logfile from 29. January 2011, 15:48

Чиж&C / Лучшее. Золотая коллекция - CD1

Used drive: Optiarc DVD RW AD-7241S Adapter: 5ID: 0

Read mode : Secure
Utilize accurate stream : Yes
Defeat audio cache: Yes
Make use of C2 pointers : No

Read offset correction: 48
Overread into Lead-In and Lead-Out: No
Fill up missing offset samples with silence : Yes
Delete leading and trailing silent blocks : No
Null samples used in CRC calculations : Yes
Used interface: Native Win32 interface for Win NT & 2000

Used output format: User Defined Encoder
Selected bitrate: 1024 kBit/s
Quality : High
Add ID3 tag : No
Command line compressor : C:Program FilesExact Audio CopyFlacflac.exe
Additional command line options : -8 -V %s


TOC of the extracted CD

Track | Start|Length| Start sector | End sector
---------------------------------------------------------
1|0:00.00 |7:01.34 | 0|31608
2|7:01.34 |6:48.34 | 31609|62242
3| 13:49.68 |5:56.32 | 62243|88974
4| 19:46.25 |2:58.51 | 88975| 102375
5| 22:45.01 |3:31.02 |102376| 118202
6| 26:16.03 |5:44.51 | 
0d8c05c756c0aeb6a40d56d5c9167d282af198b0(2009) Чиж & Co / Лучшее. Золотая коллекция (Rock) [FLAC (image+.cue), lossless] (2009) Чиж & Co / Лучшее. Золотая коллекция (Rock) [FLAC (image+.cue), lossless] " />

Аплоадер: Админ, дата: 21-08-2011, 07:41, торрент скачан: 359 раз

Понравилась раздача? Посмотрите эти:
  • (2007) GORILLAZ / D-Sides [Japan Edition] (Hip-Hop) [FLAC (image+cue), loss ...
  • (2009) ONE REPUBLIC / Waking Up (Pop-Rock/Alternative) [FLAC (tracks+.cue) ...
  • (1977) Jethro Tull / Songs from the wood (Rock, Art-Rock) [FLAC (track+ cue ...
  • (2006) Аквариум / Беспечный русский бродяга (Rock) [FLAC (image+.cue) lossl ...
  • (2009) SHAKIRA / She Wolf (US Edition) (Pop) [Flac (tracks+.cue), lossless] ...
  • (2010)Scorpions/Sting In The Tail [FLAC (tracks+cue), lossless]
  • (2010) ПИKНИК / Театр Абсурда (Art-Rock) [FLAC (tracks+.cue), lossless]
  • (2008) Pink / Funhouse (Pop) [FLAC (tracks) lossless]
  • (2010) Сергей Трофимов (Трофим) / Всё не важно (Шансон) [FLAC(image+.cue), ...
  • (2010) Ассаи / Лифт (Rap) [FLAC(image+.cue), lossless]
  • (2009) Michael Jackson / The Stripped Mixes (POP) [Flac / Tracks + .cue]
  • (Сборник, 1976-1982) Rockets / 6 Альбомов (Electro Rock/Pop Rock/Space Rock ...
  • (2010) Rihanna / Loud (R&B) [FLAC (tracks+.cue), lossless]
  • (2003) DJ Zinc / Faster (DnB, Breaks) [ FLAC (tracks+.cue), lossless]
  • (1976) The Eagles / Hotel California [Japan Remastered] (Country Rock) [FLA ...
  • (2011) Linkin Park / Iridescent (Alternative Rock) [FLAC(image+.cue), lossl ...
  • (2011) Ленинград / Хна (Rock) [FLAC (tracks+.cue), lossless]
  • (2012) Оргия Праведников / Шитрок (Rock/Progressive Rock) [FLAC (tracks+cue ...
  • (2011) Gorillaz - The Singles Collection 2001-2011 (Alternative / Hip-Hop / ...
  • (2012) Сплин / Обман зрения (Rock) [FLAC (image+.cue), lossless]
  • Информация
    Посетители, находящиеся в группе Гости, не могут оставлять комментарии к данной публикации.