вход на сайт

Имя пользователя :
Пароль :

Восстановление пароля Регистрация
(2006) Би-2 / Лучшие песни (Rock) [FLAC (image+.cue), lossless]
Рейтинг:
(голосов: 1)



[img]{THEME}/images/logopost.png[/img]



Исполнитель: Би-2
Альбом: Лучшие песни
Тип альбома: Compilation
Год выпуска: 2006
Жанр: Rock
Формат: FLAC (image+.cue)
Битрейт: lossless
Продолжительность: 01:18:41

Tреклист:
01 Полковнику никто не пишет (4:52)
02 Варвара (4:59)
03 Моя любовь (4:50)
04 Волки (5:24)
05 Революция (3:36)
06 Она (4:55)
07 Зажигать (5:11)
08 Скользкие улицы (5:39)
09 Феллини (4:37)
10 Мой друг (4:49)
11 И корабль плывёт (3:50)
12 Мой Рок-н-Ролл (6:43)
13 Прощай, Берлин (5:10)
14 Песок (4:14)
15 Ангелы (5:30)
16 Серебро (акустическая версия) (4:23)

"Отчет EAC" ▼
Text
Exact Audio Copy V0.99 prebeta 5 from 4. May 2009

Отчёт EAC об извлечении, выполненном 15. марта 2010, 1:40

Би-2 / Лучшие песни

Дисковод: MATSHITADVD-RAM UJ-846S Adapter: 1 ID: 1

Режим чтения : Достоверность
Использование точного потока : Да
Отключение кэша аудио : Да
Использование указателей C2 : Нет

Коррекция смещения при чтении : 102
Способность читать области Lead-in и Lead-out : Нет
Заполнение пропущенных сэмплов тишиной : Да
Удаление блоков с тишиной в начале и конце : Нет
При вычислениях CRC использовались нулевые сэмплы : Да
Интерфейс : Встроенный Win32-интерфейс для Win NT/2000

Выходной формат : Внутренние WAV-операции
Формат сэмплов : 44.100 Гц; 16 бит; стерео

TOC извлечённого CD

Трек | Старт | Длительность | Начальный сектор | Конечный сектор
---------------------------------------------------------------------
1 | 0:00.00 | 4:51.63 | 0 | 21887
2 | 4:51.63 | 4:59.26 | 21888 | 44338
3 | 9:51.14 | 4:50.10 | 44339 | 66098
4 | 14:41.24 | 5:23.53 | 66099 | 90376
5 | 20:05.02 | 3:36.37 | 90377 | 106613
6 | 23:41.39 | 4:54.48 | 106614 | 128711
7 | 28:36.12 | 5:10.73 | 128712 | 152034
8 | 33:47.10 | 5:38.70 | 152035 | 177454
9 | 39:26.05 | 4:37.11 | 177455 | 198240
10 | 44:03.16 | 4:48.52 | 198241 | 219892
11 | 48:51.68 | 3:50.02 | 219893 | 237144
12 | 52:41.70 | 6:43.06 | 237145 | 267375
13 | 59:25.01 | 5:09.61 | 267376 | 290611
14 | 64:34.62 | 4:13.47 | 290612 | 309633
15 | 68:48.34 | 5:30.01 | 309634 | 334384
16 | 74:18.35 | 4:22.51 | 334385 | 354085

Характеристики диапазона извлечения и сообщения об ошибках

Выбранный диапазон

Имя файла F:Би-2 - Лучшие песни.wav

Пиковый уровень 100.0 %
Качество диапазона 100.0 %
CRC копии CFC32A2B
Копирование... OK

Ошибок не произошло

AccurateRip: сводка

Трек 1 нет в базе данных
Трек 2 нет в базе данных
Трек 3 нет в базе данных
Трек 4 нет в базе данных
Трек 5 нет в базе данных
Трек 6 нет в базе данных
Трек 7 нет в базе данных
Трек 8 нет в базе данных
Трек 9 нет в базе данных
Трек 10 нет в базе данных
Трек 11 нет в базе данных
Трек 12 нет в базе данных
Трек 13 нет в базе данных
Трек 14 нет в базе данных
Трек 15 нет в базе данных
Трек 16 нет в базе данных

Ни одного трека нет в базе AccurateRip

Конец отчёта




9ae3e26bdc0f08550eda824cb0db180f4ee48470(2006) Би-2 / Лучшие песни (Rock) [FLAC (image+.cue), lossless] (2006) Би-2 / Лучшие песни (Rock) [FLAC (image+.cue), lossless] " />

Аплоадер: Админ, дата: 7-08-2011, 00:35, торрент скачан: 359 раз

Понравилась раздача? Посмотрите эти:
  • (2000) Lenny Kravitz / Greatest Hits (Rock, Funk) [FLAC (image+.cue), lossl ...
  • (2002) a-ha / Lifelines (Alternative Rock, Synth-pop ) [FLAC (image + .cue ...
  • (2009) НОЧНЫЕ СНАЙПЕРЫ — Южный полюс (русский рок, сингл) [FLAC (lossless), ...
  • (2007) СТАС МИХАЙЛОВ - Лучшие песни (Шансон) [APE (image + .cue) lossless]
  • (2006) Батырхан Шукенов/ Отан Ана (Pop) [FLAC (image+.cue) lossless]
  • (2006) Tokio / puls 200 (Alternative Rock / Pop Rock) [FLAC (image+.cue) lo ...
  • (2010) Смоки МО / Выход Из Темноты (Rap) [APE (image+ cue), lossless]
  • (2008) Ноль / Лучшие песни (Rock) [FLAC (image+.cue), lossless]
  • (2011) Within Temptation / The Unforgiving (Symphonic Gothic Metal) [FLAC ( ...
  • (2011) АлисА / 20.12 (Русский Рок) [WavPack (image+.cue), lossless]
  • (2011) Blues Cousins / KGB Blues (Blues Rock) [FLAC (image+.cue), lossless] ...
  • (2011) АукцЫон / Юла (Rock) [APE (image+.cue), lossless]
  • (Дискография, 1986 - 1999) Crimson Glory (Progressive Heavy Metal) [FLAC (i ...
  • (2001, сборник) Технология — Лучшие песни (Поп) [FLAC, lossless]
  • (2007) ЛАСКОВЫЙ МАЙ - Лучшие Песни. Твоя Коллекция (2CD) (Pop) [FLAC (image ...
  • ( 2001) Воскресение / Звездная коллекция (Rock) [FLAC (image+.cue) lossless ...
  • (2009) Земфира / Z-Sides (Rock) [FLAC(image+.cue), lossless ]
  • (1995) Юрий Шатунов / Ты помнишь... (Pop) [FLAC(image+.cue), lossless]
  • (2010) Александр Серов / Лучшие песни (серия «НОВАЯ КОЛЛЕКЦИЯ») (Pop) [Flac ...
  • (1995) Steve Morse Band / Structural Damage (Instrumental Rock/Blues Rock/J ...
  • (2012) Paradise Lost / Tragic Idol (Limited Edition) (Gothic Rock, Metal) [ ...
  • (2000) Парк Горького (Gorky Park) / The Best (Glam Metal/Hard Rock) [FLAC ...
  • (2004) Ex-Сектор Газа / Огненный рай (Punk-Rock) [FLAC (image+.cue), lossle ...
  • (2008) Студия 80 / Придуманный Мир (Pop) [FLAC (image+.cue), lossless]
  • (2012) Денис Майданов / Лучшие песни (Серия "Музыка на почте") (Шансон) [FL ...
  • Информация
    Посетители, находящиеся в группе Гости, не могут оставлять комментарии к данной публикации.