вход на сайт

Имя пользователя :
Пароль :

Восстановление пароля Регистрация
(2010) Гарик Сукачев / 5:0 в мою пользу! Юбилейный концерт в СК "Олимпийский" (2 CD) (Русский рок) [FLAC (image+.cue), lossless]
Рейтинг:
(голосов: 1)



[img]{THEME}/images/logopost.png[/img]



Исполнитель: Гарик Сукачев
Альбом: 5:0 в мою пользу!
Тип альбома: Live
Год выпуска: 2010
Жанр: Rock
Формат: FLAC (image+.cue)
Битрейт: lossless
Продолжительность: 2:12:12

Tреклист:
CD1:
01 Эй, брат, здравствуй!
02 Кони привередливые
03 Скорый поезд придёт в шесть часов
04 Эрегированный
05 Грязная песня
06 Право на выбор
07 Ольга
08 Белый колпак
09 Бродяга
10 Моя маленькая Бэйби
11 За окошком месяц май
12 Я милого узнаю по походке
13 О чем поет гитара
14 Белые дороги

CD2:
01 Поплачь о нём
02 Марионетки
03 Верю я
04 Оборотень с гитарой
05 Блеснёт слезой
06 Ночной полёт
07 Песня вольного стрелка (Бэлла чао!)
08 Напои меня водой
09 Непокорённая вера
10 Моя бабушка курит трубку
11 Дорожная

"лог создания рипа CD1 " ▼TextExact Audio Copy V0.99 prebeta 5 from 4. May 2009

EAC extraction logfile from 20. October 2010, 4:12

Гарик Сукачев / 5:0 в мою пользу - CD 1

Used drive : PIONEER DVD-RW DVR-212 Adapter: 8 ID: 0

Read mode : Secure
Utilize accurate stream : Yes
Defeat audio cache : Yes
Make use of C2 pointers : No

Read offset correction : 48
Overread into Lead-In and Lead-Out : No
Fill up missing offset samples with silence : Yes
Delete leading and trailing silent blocks : No
Null samples used in CRC calculations : Yes
Used interface : Installed external ASPI interface

Used output format : Internal WAV Routines
Sample format : 44.100 Hz; 16 Bit; Stereo


TOC of the extracted CD

Track | Start | Length | Start sector | End sector
---------------------------------------------------------
1 | 0:00.00 | 4:30.39 | 0 | 20288
2 | 4:30.39 | 4:32.51 | 20289 | 40739
3 | 9:03.15 | 5:17.16 | 40740 | 64530
4 | 14:20.31 | 5:03.57 | 64531 | 87312
5 | 19:24.13 | 4:27.42 | 87313 | 107379
6 | 23:51.55 | 6:06.28 | 107380 | 134857
7 | 29:58.08 | 4:39.55 | 134858 | 155837
8 | 34:37.63 | 5:10.23 | 155838 | 179110
9 | 39:48.11 | 3:40.60 | 179111 | 195670
10 | 43:28.71 | 4:30.28 | 195671 | 215948
11 | 47:59.24 | 4:38.06 | 215949 | 236804
12 | 52:37.30 | 5:10.25 | 236805 | 260079
13 | 57:47.55 | 5:57.40 | 260080 | 286894
14 | 63:45.20 | 7:38.11 | 286895 | 321255


Range status and errors

Sel
a02d6317477f82cf58b0ad08e15e59afdfcdc8f8(2010) Гарик Сукачев / 5:0 в мою пользу! Юбилейный концерт в СК "Олимпийский" (2 CD) (Русский рок) [FLAC (image+.cue), lossless] (2010) Гарик Сукачев / 5:0 в мою пользу! Юбилейный концерт в СК "Олимпийский" (2 CD) (Русский рок) [FLAC (image+.cue), lossless] " />

Аплоадер: Админ, дата: 9-07-2011, 00:13, торрент скачан: 359 раз

Понравилась раздача? Посмотрите эти:
  • (1996) George Michael / Older (1st Press Japan) (Electronic, Pop/Rock) [FLA ...
  • (1989) Kaoma / Lambada (lambada / latin / ethnic) [FLAC (image+.cue), lossl ...
  • (2010) Сергей Трофимов (Трофим) / Всё не важно (Шансон) [FLAC(image+.cue), ...
  • (2010) Ассаи / Лифт (Rap) [FLAC(image+.cue), lossless]
  • (2008) The Magic Of Nomads / Bulbul Zaman (folk-ethnic / smooth jazz / inst ...
  • (2010) Zaz / Zaz (Nu jazz, Chanson, Soul) [FLAC (tracks+.cue), lossless]
  • (2011) The Prodigy / Worlds On Fire (Big Beat, Rave) [FLAC (image+.cue), lo ...
  • (2008) Юрий Наумов / Рок как будто Блюз (Blues) [FLAC (Image+.cue), lossles ...
  • (2009) D-Man 55 / 7.62 Б-30 (Rap) [FLAC (image+.cue) lossless]
  • (Дискография, 1988-2011) Kingdom Come (Hard&Heavy,Glam Metal) [FLAC (image+ ...
  • (2011) B.B. King / Icon (Blues) [FLAC (tracks+.cue), lossless]
  • (1998) Roomful of Blues / There Goes The Neighborhood (Jump / Modern Electr ...
  • (2012) Сергей Васюта и Сладкий Сон / На белом покрывале января... (Pop) [Fl ...
  • Гарик Сукачев / Юбилейный концерт "5:0 в мою пользу" (2009)
  • Гарик Сукачёв / Юбилейный концерт «5:0 в мою пользу» [2009, Rock, HDRip]
  • (2011) Linkin Park / Iridescent (Alternative Rock) [FLAC(image+.cue), lossl ...
  • (2011) Стас Михайлов / Только ты (Шансон) [Flac(image+.cue)Lossless]
  • (1989) Galway - Scimone - I Solisti Veneti / Vivaldi - 6 Concertos (Classic ...
  • Гарик Сукачёв / «5:0 в мою пользу» Юбилейный концерт [2010, Rock, BDRip,720 ...
  • (2011) Rammstein / Mein Land (Neue Deutsche Harte, Industrial, Tanz-Metal) ...
  • (2009) Mystica / Second Dive (Trance, Ambient & Downtempo, Chill Out) [FLAC ...
  • (2011) Metallica / Beyond Magnetic (Thrash Metal) [FLAC (image+.cue), lossl ...
  • (2012) Fox / 2012 (Melodic Hard Rock) [FLAC (image +.cue), lossless]
  • (2010) Татьяна Буланова / Романсы (Pop) [FLAC (image+.cue), lossless]
  • (2012) Game Over / For Humanity (Thrash Metal) [FLAC (image+.cue), lossless ...
  • Информация
    Посетители, находящиеся в группе Гости, не могут оставлять комментарии к данной публикации.